<?xml version="1.0" standalone="no"?>
<!DOCTYPE svg PUBLIC "-//W3C//DTD SVG 1.1//EN" "http://www.w3.org/Graphics/SVG/1.1/DTD/svg11.dtd" >
<svg xmlns="http://www.w3.org/2000/svg">
<metadata>Generated by IcoMoon</metadata>
<defs>
<font id="icomoon" horiz-adv-x="1024">
<font-face units-per-em="1024" ascent="960" descent="-64" />
<missing-glyph horiz-adv-x="1024" />
<glyph unicode="&#x20;" horiz-adv-x="512" d="" />
<glyph unicode="&#xe900;" glyph-name="24_adjust_uploads_app" d="M241.365 579.671c0.026 105.897 85.757 187.751 190.268 206.010 51.226 8.95 104.269 1.74 149.978-24.485 45.278-25.978 86.357-72.325 111.258-147.167l9.715-29.193 30.767-0.003c62.814-0.007 134.106-62.956 156.267-152.842 10.547-42.795 8.525-88.137-10.347-129.835-18.731-41.382-55.539-82.475-120.375-114.586-21.116-10.458-29.756-36.053-19.298-57.169s36.053-29.756 57.169-19.298c79.991 39.612 132.309 94.148 160.243 155.87 27.793 61.402 29.956 126.63 15.458 185.442-25.421 103.129-107.021 198.872-208.465 215.28-31.701 78.269-81.024 133.722-139.925 167.517-64.969 37.274-138.62 46.498-207.13 34.528-127.777-22.325-247.446-121.576-259.856-265.379-92.541-62.307-123.757-174.739-112.087-271.84 12.372-102.95 76.489-209.894 192.547-225.472 23.355-3.136 44.829 13.257 47.963 36.612 3.135 23.351-13.257 44.826-36.611 47.962-62.063 8.329-109.28 68.745-119.176 151.078-9.74 81.045 20.157 162.347 89.152 199.386l22.48 12.068 0.006 25.514zM540.979 521.993c-16.363 15.181-41.664 15.181-58.027 0l-128.002-118.724c-17.277-16.026-18.291-43.021-2.266-60.297s43.020-18.291 60.297-2.266l56.318 52.237v-243.563c0-23.565 19.102-42.667 42.667-42.667s42.667 19.102 42.667 42.667v243.563l56.32-52.237c17.276-16.026 44.271-15.010 60.297 2.266 16.021 17.276 15.010 44.271-2.27 60.297l-128 118.724z" />
<glyph unicode="&#xe901;" glyph-name="24_adjust_crop_app" d="M810.667 209.673v536.994h-536.994l19.608-19.608c16.663-16.662 16.663-43.677 0-60.34s-43.677-16.663-60.34 0l-19.608 19.608v-536.994h536.994l-19.61 19.61c-16.661 16.661-16.661 43.674 0 60.339 16.666 16.661 43.678 16.661 60.339 0l19.61-19.61zM256 832h554.667v42.667c0 23.564 19.102 42.667 42.667 42.667s42.667-19.102 42.667-42.667v-42.667h42.667c23.565 0 42.667-19.103 42.667-42.667s-19.102-42.667-42.667-42.667h-42.667v-554.667c0-70.694-57.306-128-128-128h-554.667v-42.667c0-23.565-19.103-42.667-42.667-42.667s-42.667 19.102-42.667 42.667v42.667h-42.667c-23.564 0-42.667 19.102-42.667 42.667s19.103 42.667 42.667 42.667h42.667v554.667c0 70.692 57.308 128 128 128zM392.837 627.503c-16.663 16.662-43.677 16.662-60.34 0s-16.662-43.677 0-60.34l99.555-99.554c16.666-16.666 43.678-16.666 60.339 0 16.666 16.661 16.666 43.674 0 60.339l-99.554 99.555zM591.949 428.39c-16.666 16.666-43.678 16.666-60.339 0-16.666-16.661-16.666-43.674 0-60.339l99.554-99.554c16.661-16.661 43.678-16.661 60.339 0s16.661 43.678 0 60.339l-99.554 99.554z" />
<glyph unicode="&#xe902;" glyph-name="24_adjust_editing_app" d="M256 832h384c23.565 0 42.667-19.103 42.667-42.667s-19.102-42.667-42.667-42.667h-384c-23.564 0-42.667-19.103-42.667-42.667v-512c0-23.565 19.103-42.667 42.667-42.667h512c23.565 0 42.667 19.102 42.667 42.667v298.667c0 23.565 19.102 42.667 42.667 42.667s42.667-19.102 42.667-42.667v-298.667c0-70.694-57.306-128-128-128h-512c-70.692 0-128 57.306-128 128v512c0 70.692 57.308 128 128 128zM882.163 715.215c17.37 15.923 18.547 42.912 2.624 60.283s-42.914 18.544-60.284 2.621l-512.001-469.335c-17.37-15.919-18.544-42.91-2.621-60.279s42.912-18.547 60.283-2.624l511.999 469.335z" />
<glyph unicode="&#xe903;" glyph-name="24_adjust_resize_app" d="M170.667 661.333c0-23.564-19.103-42.667-42.667-42.667s-42.667 19.103-42.667 42.667v85.333c0 70.692 57.308 128 128 128h85.333c23.564 0 42.667-19.103 42.667-42.667s-19.103-42.667-42.667-42.667h-85.333c-23.564 0-42.667-19.103-42.667-42.667v-85.333zM341.333 704.042c-47.128 0-85.333-38.205-85.333-85.333v-341.332c0-47.13 38.205-85.333 85.333-85.333h341.333c47.13 0 85.333 38.204 85.333 85.333v341.332c0 47.128-38.204 85.333-85.333 85.333h-341.333zM682.667 618.708v-341.332h-341.333v341.332h341.333zM128 277.333c23.564 0 42.667-19.102 42.667-42.667v-85.333c0-23.565 19.103-42.667 42.667-42.667h85.333c23.564 0 42.667-19.102 42.667-42.667s-19.103-42.667-42.667-42.667h-85.333c-70.692 0-128 57.306-128 128v85.333c0 23.565 19.103 42.667 42.667 42.667zM896 277.333c-23.565 0-42.667-19.102-42.667-42.667v-85.333c0-23.565-19.102-42.667-42.667-42.667h-85.333c-23.565 0-42.667-19.102-42.667-42.667s19.102-42.667 42.667-42.667h85.333c70.694 0 128 57.306 128 128v85.333c0 23.565-19.102 42.667-42.667 42.667zM853.333 661.333c0-23.564 19.102-42.667 42.667-42.667s42.667 19.103 42.667 42.667v85.333c0 70.692-57.306 128-128 128h-85.333c-23.565 0-42.667-19.103-42.667-42.667s19.102-42.667 42.667-42.667h85.333c23.565 0 42.667-19.103 42.667-42.667v-85.333z" />
<glyph unicode="&#xe904;" glyph-name="24_adjust_rotateflip_app" d="M277.699 666.026l-21.933-3.16c28.011 46.359 73.711 84.165 132.698 106.609 73.288 27.886 160.136 29.218 241.548 2.351 81.421-26.869 148.723-79.058 188.467-143.698 13.154-21.387 41.152-28.064 62.537-14.913 21.389 13.151 28.066 41.149 14.916 62.536-52.023 84.601-137.591 149.467-237.427 182.415-99.844 32.949-208.235 32.104-302.373-3.715-78.604-29.908-142.828-82.641-181.878-150.816l-12.684 27.443c-10.534 22.79-37.548 32.727-60.338 22.193s-32.727-37.548-22.193-60.338l49.653-107.431c8.433-18.248 27.851-28.79 47.748-25.923l114.224 16.457c24.85 3.581 42.093 26.628 38.513 51.478s-26.628 42.093-51.478 38.512zM856.149 203.797l12.757-27.601c10.534-22.793 37.547-32.73 60.339-22.195 22.788 10.534 32.725 37.547 22.191 60.339l-49.651 107.43c-8.435 18.249-27.853 28.791-47.748 25.924l-114.227-16.457c-24.849-3.584-42.091-26.628-38.511-51.482 3.58-24.849 26.628-42.091 51.477-38.511l21.751 3.132c-28.011-46.345-73.707-84.139-132.685-106.581-73.289-27.883-160.137-29.218-241.546-2.351-81.419 26.871-148.723 79.057-188.469 143.697-13.151 21.389-41.149 28.066-62.537 14.916-21.387-13.154-28.064-41.152-14.913-62.537 52.020-84.604 137.589-149.47 237.426-182.417 99.846-32.947 208.236-32.102 302.371 3.716 78.669 29.931 142.929 82.722 181.973 150.976zM341.405 533.334c0 47.128 38.205 85.333 85.335 85.333h170.667c47.125 0 85.333-38.205 85.333-85.333v-170.668c0-47.13-38.208-85.333-85.333-85.333h-170.667c-47.13 0-85.335 38.204-85.335 85.333v170.668zM426.739 533.334v-170.668h170.667v170.668h-170.667z" />
<glyph unicode="&#xe905;" glyph-name="24_edit_advanced_app" d="M170.665 704c0 70.692 57.307 128 128 128h384.002c23.561 0 42.667-19.103 42.667-42.667s-19.106-42.667-42.667-42.667h-384.002c-23.564 0-42.667-19.103-42.667-42.667v-213.333c0-23.565-19.103-42.667-42.667-42.667s-42.667 19.102-42.667 42.667v213.333zM896 533.333c23.561 0 42.667-19.102 42.667-42.667v-298.667c0-70.694-57.31-128-128-128h-298.667c-23.565 0-42.667 19.102-42.667 42.667s19.102 42.667 42.667 42.667h298.667c23.561 0 42.667 19.102 42.667 42.667v298.667c0 23.565 19.102 42.667 42.667 42.667zM927.889 775.013c15.654-17.612 14.067-44.58-3.546-60.236l-384-341.333c-17.613-15.654-44.578-14.067-60.237 3.541-15.654 17.613-14.067 44.582 3.546 60.237l384 341.334c17.613 15.655 44.578 14.069 60.237-3.543zM188.338 405.333c-22.632 0-44.337-8.99-60.34-24.994l-46.671-46.669c-30.028-30.029-33.407-77.568-7.927-111.539l135.664-180.885c34.133-45.513 102.4-45.513 136.533 0l135.665 180.885c25.481 33.971 22.101 81.51-7.927 111.539l-46.671 46.669c-16.003 16.004-37.708 24.994-60.34 24.994h-177.987zM188.338 320h177.987l46.671-46.669-135.664-180.885-135.664 180.885 46.671 46.669z" />
<glyph unicode="&#xe906;" glyph-name="24_home_ai_app" d="M938.667 779.882c-31.983 6.374-41.847 19.958-53.052 52.118-8.192-31.512-18.317-44.128-53.056-52.118 32.875-13.749 46.042-23.566 53.056-52.118 10.935 27.004 21.201 39.547 53.052 52.118zM757.551 758.302c22.404-64.313 42.138-91.477 106.095-104.225-63.697-25.138-84.22-50.221-106.095-104.224-14.020 57.098-40.358 76.729-106.095 104.224 69.47 15.979 89.715 41.207 106.095 104.225zM795.085 58.18c0-20.348-16.794-36.847-37.513-36.847-4.382 0-8.589 0.738-12.497 2.095-16-2.773-32.593 4.958-40.145 19.994l-95.454 191.245h-353.476l-99.511-181.316c-9.168-18.253-31.66-25.745-50.237-16.738s-26.205 31.104-17.036 49.353l302.663 602.452c9.168 18.25 31.66 25.743 50.238 16.736 1.28-0.622 2.513-1.306 3.691-2.048 8.64-3.166 16.115-9.45 20.518-18.215l253.739-505.067v283.695c0 20.352 16.794 36.851 37.508 36.851 20.719 0 37.513-16.499 37.513-36.851v-405.338zM428.215 594.223l-131.642-274.223h279.426l-147.785 274.223z" />
<glyph unicode="&#xe907;" glyph-name="20_adjust_deformation" d="M102.4 704c0 84.831 68.769 153.6 153.6 153.6h512c84.833 0 153.6-68.769 153.6-153.6v-512c0-84.833-68.767-153.6-153.6-153.6h-512c-84.831 0-153.6 68.767-153.6 153.6v512zM256 755.2c-28.277 0-51.2-22.923-51.2-51.2v-94.947c36.874 18.931 85.541 36.107 137.213 41.785 2.186 0.24 4.384 0.46 6.595 0.659-8.701 30.876-21.59 58.063-33.122 75.917-5.558 8.605-8.208 18.252-8.198 27.787h-51.288zM355.797 549.322c-0.864-0.086-1.731-0.176-2.598-0.271-48.395-5.318-94.493-25.093-120.612-41.964-8.605-5.559-18.252-8.208-27.787-8.199v-145.833c16.574 8.509 35.531 16.66 56.072 23.578 8.202 37.719 28.212 73.848 61.219 107.314 18.142 18.395 28.891 40.63 33.706 65.375zM456.239 529.544c-7.995-41.209-26.472-82.25-61.241-117.501-5.152-5.222-9.603-10.317-13.441-15.273 43.862-0.625 90.152-10.854 131.713-38.093 0.317 2.683 0.691 5.381 1.132 8.095 5.274 32.517 19.123 63.939 42.296 93.589-28.109 10.585-55.15 28.187-80.644 53.331-6.187 6.102-12.809 11.367-19.814 15.853zM611.584 551.387c3.139 17.412 3.395 36.036 1.265 55.414-5.315 48.395-25.093 94.493-41.964 120.612-5.555 8.605-8.207 18.252-8.197 27.787h-145.235c16.028-31.22 30.798-70.893 38.397-113.686 32.476-9.973 64.117-27.309 92.108-54.916 23.383-23.064 44.145-32.076 61.665-34.916 0.65-0.106 1.306-0.204 1.961-0.294zM685.133 457.558c-9.144-15.876-20.593-31.175-34.734-45.516-23.066-23.383-32.077-44.145-34.918-61.665-2.811-17.347-0.246-35.799 7.24-55.803 14.182-0.138 29.128 3.016 45.056 9.247 38.456 15.037 72.97 43.366 104.54 69.279l0.041 0.036c4.966 4.076 9.861 8.095 14.684 11.986 9.477 7.654 20.859 11.377 32.159 11.366v138.578c-29.814-23.945-69.868-53.306-114.13-70.615-6.456-2.524-13.107-4.844-19.937-6.894zM819.2 652.49v51.51c0 28.277-22.922 51.2-51.2 51.2h-95.145c18.929-36.874 36.106-85.541 41.784-137.213 1.137-10.341 1.818-20.968 1.94-31.77 19.61 13.229 38.129 28.431 55.736 42.883 4.977 4.089 9.887 8.117 14.725 12.024 9.477 7.653 20.859 11.372 32.159 11.366zM204.8 192c0-28.278 22.923-51.2 51.2-51.2h87.466c-23.945 29.814-53.306 69.868-70.615 114.13-1.867 4.777-3.622 9.656-5.239 14.643-13.704-6.001-25.651-12.431-35.025-18.488-8.605-5.555-18.252-8.207-27.787-8.197v-50.888zM368.22 292.224c15.036-38.456 43.365-72.97 69.279-104.54 4.089-4.977 8.118-9.887 12.024-14.725 7.653-9.477 11.372-20.859 11.366-32.159h137.976c-14.71 18.314-31.457 40.489-46.208 65.132-26.66 10.721-52.333 27.822-76.604 51.758-28.586 28.196-66.446 38.533-108.588 36.495l0.755-1.961zM692.89 187.699c4.086-4.982 8.125-9.902 12.032-14.74 7.654-9.477 11.372-20.859 11.366-32.159h51.712c28.278 0 51.2 22.922 51.2 51.2v87.066c-29.814-23.946-69.868-53.304-114.13-70.615-7.357-2.877-14.976-5.489-22.82-7.736 3.564-4.398 7.122-8.735 10.639-13.015z" />
<glyph unicode="&#xe908;" glyph-name="32_hy_delete" d="M400 476c0 15.462 12.538 28 28 28s28-12.538 28-28v-224c0-15.462-12.538-28-28-28s-28 12.538-28 28v224zM596 504c-15.462 0-28-12.538-28-28v-224c0-15.462 12.538-28 28-28s28 12.538 28 28v224c0 15.462-12.538 28-28 28zM653.037 812.477l49.891-84.477h173.072c15.462 0 28-12.536 28-28s-12.538-28-28-28h-84v-504c0-61.856-50.144-112-112-112h-336c-61.856 0-112 50.144-112 112v504h-84c-15.464 0-28 12.536-28 28s12.536 28 28 28h173.61l50.902 84.818c10.122 16.864 28.349 27.182 48.019 27.182h184.288c19.808 0 38.144-10.466 48.218-27.523zM386.922 728h250.97l-33.072 56h-184.288l-33.61-56zM288 672v-504c0-30.928 25.072-56 56-56h336c30.928 0 56 25.072 56 56v504h-448z" />
<glyph unicode="&#xe909;" glyph-name="32_hy_download" d="M512 840c15.462 0 28-12.536 28-28v-486.355l175.072 196.957c10.275 11.558 27.971 12.598 39.53 2.326 11.558-10.275 12.598-27.971 2.326-39.53l-224-252c-5.315-5.978-12.931-9.398-20.928-9.398s-15.613 3.421-20.928 9.398l-223.999 252c-10.274 11.558-9.233 29.254 2.325 39.53 11.558 10.272 29.256 9.232 39.53-2.326l175.073-196.957v486.355c0 15.464 12.538 28 28 28zM204 336c15.464 0 28-12.538 28-28v-196h560v196c0 15.462 12.538 28 28 28s28-12.538 28-28v-224c0-15.462-12.538-28-28-28h-616c-15.464 0-28 12.538-28 28v224c0 15.462 12.536 28 28 28z" />
<glyph unicode="&#xe90a;" glyph-name="32_hy_history" d="M392 640h-94.671c52.761 58.954 129.401 96 214.671 96 159.059 0 288-128.941 288-288s-128.941-288-288-288c-159.059 0-288 128.941-288 288 0 17.674-14.327 32-32 32s-32-14.326-32-32c0-194.403 157.596-352 352-352s352 157.597 352 352c0 194.404-157.597 352-352 352-96.768 0-184.394-39.058-248-102.206v70.206c0 17.673-14.327 32-32 32s-32-14.327-32-32v-160c0-17.674 14.327-32 32-32h160c17.674 0 32 14.326 32 32s-14.326 32-32 32zM544.013 543.997c0.003 17.674-14.323 32-31.997 32.003s-32-14.323-32.003-31.997l-0.013-131.293c0-8.682 3.526-16.992 9.77-23.024l96-92.704c12.714-12.278 32.973-11.923 45.248 0.787 12.278 12.714 11.923 32.973-0.787 45.248l-86.23 83.27 0.013 117.709z" />
<glyph unicode="&#xe90b;" glyph-name="32_hy_home" d="M256 161.427h96v163.571c0 36.134 28.653 65.427 64 65.427h192c35.347 0 64-29.293 64-65.427v-163.571h96v381.222l-256 191.923-256-191.923v-381.222zM416 161.427h192v163.571h-192v-163.571zM416 96h-160c-35.346 0-64 29.293-64 65.427v381.222c0 20.842 9.713 40.438 26.153 52.762l256.001 191.922c22.528 16.889 53.165 16.889 75.693 0l256-191.922c16.442-12.323 26.154-31.92 26.154-52.762v-381.222c0-36.134-28.653-65.427-64-65.427h-352z" />
<glyph unicode="&#xe90c;" glyph-name="20_animation" d="M153.6 652.8c0 56.554 45.846 102.4 102.4 102.4 49.062 0 90.173-34.555 100.106-80.695 3.12-14.491 12.366-26.918 25.349-34.071s28.429-8.326 42.344-3.219c27.429 10.066 57.113 15.585 88.201 15.585s60.769-5.518 88.202-15.585c13.916-5.107 29.358-3.933 42.342 3.219s22.231 19.58 25.349 34.071c9.933 46.14 51.041 80.695 100.106 80.695 56.556 0 102.4-45.846 102.4-102.4 0-49.062-34.555-90.173-80.696-100.106-14.49-3.12-26.916-12.366-34.068-25.35s-8.325-28.429-3.22-42.344c10.066-27.429 15.585-57.112 15.585-88.201 0-141.384-114.616-256-256-256s-256 114.616-256 256c0 31.089 5.518 60.771 15.585 88.201 5.107 13.915 3.933 29.361-3.219 42.344s-19.58 22.23-34.071 25.349c-46.14 9.933-80.695 51.044-80.695 100.106zM256 857.6c-113.108 0-204.8-91.692-204.8-204.8 0-78.989 44.685-147.465 110.135-181.639-5.072-24.021-7.735-48.899-7.735-74.361 0-197.939 160.461-358.4 358.4-358.4s358.4 160.461 358.4 358.4c0 25.462-2.662 50.34-7.736 74.361 65.449 34.174 110.136 102.65 110.136 181.639 0 113.108-91.694 204.8-204.8 204.8-78.991 0-147.466-44.685-181.637-110.135-24.023 5.072-48.901 7.735-74.363 7.735s-50.342-2.663-74.361-7.735c-34.174 65.45-102.65 110.135-181.639 110.135zM448.683 378.675c-18.268 21.586-50.574 24.274-72.158 6.006s-24.273-50.575-6.006-72.156c33.085-39.091 79.687-66.35 132.417-69.1 53.875-2.811 106.585 20.362 149.47 67.866 18.949 20.987 17.295 53.366-3.697 72.315-20.987 18.944-53.366 17.29-72.315-3.697-25.38-28.119-49.469-35.195-68.128-34.222-19.803 1.029-41.468 11.581-59.583 32.988z" />
<glyph unicode="&#xe90d;" glyph-name="32_hy_olders" d="M288 768c-53.019 0-96-42.981-96-96v-512c0-53.021 42.981-96 96-96h448c53.021 0 96 42.979 96 96v512c0 53.019-42.979 96-96 96h-448zM256 672c0 17.673 14.327 32 32 32h448c17.674 0 32-14.327 32-32v-512c0-17.674-14.326-32-32-32h-448c-17.673 0-32 14.326-32 32v512zM352 544c-17.674 0-32-14.326-32-32s14.326-32 32-32h320c17.674 0 32 14.326 32 32s-14.326 32-32 32h-320zM320 384c0 17.674 14.326 32 32 32h320c17.674 0 32-14.326 32-32s-14.326-32-32-32h-320c-17.674 0-32 14.326-32 32zM352 288c-17.674 0-32-14.326-32-32s14.326-32 32-32h320c17.674 0 32 14.326 32 32s-14.326 32-32 32h-320z" />
<glyph unicode="&#xe90e;" glyph-name="32_hy_preservation" d="M832 604.582c0 17.933-7.526 35.046-20.742 47.168l-143.302 131.418c-11.805 10.826-27.242 16.831-43.258 16.831h-336.698c-35.346 0-64-28.654-64-64v-608c0-35.347 28.654-64 64-64h480c35.347 0 64 28.653 64 64v476.582zM640 721.966l124.272-113.966h-124.272v113.966zM768 544v-416h-480v608h288v-128c0-35.347 28.653-64 64-64h128z" />
<glyph unicode="&#xe90f;" glyph-name="32_hy_pro" d="M128 448c0 212.077 171.923 384 384 384s384-171.923 384-384c0-113.792-49.498-216.026-128.134-286.342 0.048-0.483 0.093-1.034 0.134-1.658h-2c-67.693-59.747-156.614-96-254-96s-186.307 36.253-253.999 96h-2.001c0.040 0.624 0.084 1.174 0.13 1.661-78.636 70.317-128.13 172.547-128.13 286.339zM330.966 184.096c51.485-35.386 113.84-56.096 181.034-56.096 67.203 0 129.568 20.717 181.056 56.109-9.174 24.733-23.344 48.621-40.595 67.43-23.67 25.802-47.53 36.461-67.178 36.461h-146.525c-19.67 0-43.533-10.659-67.19-36.445-17.261-18.806-31.434-42.707-40.602-67.459zM744.112 227.715c54.467 57.376 87.888 134.928 87.888 220.285 0 176.733-143.267 320-320 320s-320-143.267-320-320c0-85.363 33.426-162.922 87.903-220.298 31.617 67.51 90.916 124.298 158.855 124.298h146.525c67.92 0 127.203-56.806 158.829-124.285zM512 448c53.018 0 96 42.982 96 96s-42.982 96-96 96c-53.018 0-96-42.982-96-96s42.982-96 96-96zM672 544c0-88.365-71.635-160-160-160s-160 71.635-160 160c0 88.365 71.635 160 160 160s160-71.635 160-160z" />
<glyph unicode="&#xe910;" glyph-name="32_hy_sec" d="M526.118 767.38c1.318 0.394 2.726 0.394 4.045 0l264.749-79.027c3.018-0.901 5.088-3.688 5.088-6.852v-156.672c0-177.786-108.755-335.661-270.634-396.266-0.848-0.317-1.802-0.317-2.65 0-161.923 60.605-270.717 218.518-270.717 396.352v156.578c0 3.164 2.070 5.952 5.088 6.852l265.030 79.035zM548.384 829.042c-13.203 3.942-27.264 3.944-40.47 0.005l-265.030-79.035c-30.182-9.001-50.884-36.877-50.884-68.52v-156.578c0-204.234 124.975-386.493 312.384-456.634 15.254-5.709 32.067-5.709 47.322 0.003 187.36 70.144 312.294 252.362 312.294 456.544v156.672c0 31.636-20.691 59.508-50.867 68.514l-264.749 79.027zM696.298 523.302c11.501 13.488 9.946 33.792-3.472 45.35-13.418 11.562-33.619 9.997-45.123-3.488l-142.845-167.501-99.024 92.893c-12.918 12.118-33.168 11.418-45.229-1.568-12.058-12.986-11.36-33.338 1.562-45.456l123.427-115.786c6.378-5.981 14.906-9.088 23.613-8.602 8.71 0.49 16.842 4.528 22.518 11.181l164.573 192.976z" />
<glyph unicode="&#xe911;" glyph-name="32_return" d="M730.125 754.494c10.218-14.422 6.806-34.394-7.616-44.61l-347.133-245.888 347.133-245.888c14.422-10.214 17.834-30.186 7.616-44.608-10.214-14.422-30.186-17.83-44.608-7.616l-347.136 245.888c-36.008 25.504-36.008 78.944 0 104.451l347.136 245.886c14.422 10.215 34.394 6.805 44.608-7.616z" />
<glyph unicode="&#xe912;" glyph-name="24_adjust_above" d="M288.864 777.315l50.116-51.677h-99.974l49.859 51.677zM266.42 629.135l-8.036 8.286h16.031l-7.995-8.286zM334.021 855.348c-25.026 25.805-65.548 25.751-90.51-0.12l-112.991-117.111c-24.961-25.871-24.909-67.763 0.116-93.568l90.626-93.448c25.026-25.806 65.548-25.751 90.51 0.12l112.991 117.111c24.96 25.871 24.909 67.764-0.116 93.568l-90.626 93.448zM528.695 769.737c-23.565 0-42.667-19.748-42.667-44.109s19.102-44.108 42.667-44.108h281.971c23.565 0 42.667-19.748 42.667-44.108v-363.64l-132.292 132.262c-14.455 14.447-35.968 14.447-50.423 0l-117.952-117.926-151.286 201.664c-7.216 9.617-17.69 15.198-28.744 15.313s-21.614-5.248-28.98-14.716l-172.989-222.362v295.116c0 24.361-19.103 44.108-42.667 44.108s-42.667-19.748-42.667-44.108v-366.796c0-73.084 57.308-132.326 128-132.326h597.333c70.694 0 128 59.243 128 132.326v441.085c0 73.082-57.306 132.326-128 132.326h-281.971zM832.388 177.758c3.695-3.691 7.825-6.43 12.173-8.23-7.799-10.522-20.079-17.31-33.894-17.31h-597.333c-9.204 0-17.727 3.012-24.697 8.137 2.294 1.873 4.442 4.070 6.397 6.579l176.731 227.174 147.911-197.171c6.669-8.887 16.149-14.362 26.338-15.202 10.193-0.841 20.254 3.021 27.964 10.726l121.852 121.822 136.559-136.525zM450.253 588.646l-23.586 48.765-23.586-48.765c-8.766-18.125 3.983-39.452 23.586-39.452 19.601 0 32.354 21.327 23.586 39.452z" />
<glyph unicode="&#xe913;" glyph-name="24_adjust_repair" d="M437.299 417.412c23.68 9.161 41.86 28.292 49.958 51.955 23.607 7.522 42.944 25.011 52.698 48.111 9.515 22.528 14.711 47.237 14.711 72.918 0 99.852-79.253 185.065-182.206 185.065-6.161 0-12.257-0.313-18.273-0.925l-70.997 68.262c-48.368 45.481-124.11 41.708-167.909-7.662-42.393-47.784-39.524-121.141 6.988-165.334l68.469-65.86c-0.321-4.48-0.484-8.998-0.484-13.547 0-99.854 79.253-185.068 182.205-185.068 22.711 0 44.613 4.262 64.838 12.083zM226.64 778.801l102.916-98.962c0.484 0.247 0.971 0.489 1.459 0.727 6.045 2.95 12.433 5.274 19.086 6.893 7.178 1.746 14.664 2.67 22.359 2.67 0.812 0 1.622-0.010 2.429-0.031 35.313-0.894 65.938-21.244 82.147-51.032 7.829-14.395 12.297-30.995 12.297-48.669 0-10.772-1.66-21.146-4.727-30.865-0.32-1.012-0.657-2.018-1.007-3.016-0.691-1.978-1.446-3.926-2.257-5.844l-1.741 1.673-44.66 42.833c-10.549 10.118-25.227 12.824-37.978 8.338-5.691-2.002-10.998-5.436-15.384-10.283l-0.522-0.588c-0.636-0.731-1.239-1.481-1.812-2.247-11.292-15.119-10.244-36.635 2.661-50.515 0.503-0.541 1.024-1.070 1.562-1.587l43.052-41.292c-3.035-1.173-6.142-2.193-9.313-3.055-7.899-2.142-16.193-3.285-24.746-3.285-15.912 0-30.929 3.951-44.175 10.953-31.289 16.533-52.698 50.083-52.698 88.782 0 7.17 0.735 14.162 2.131 20.903 1.469 7.089 3.669 13.9 6.516 20.343l0.24 0.539-103.294 99.358c-0.465 0.436-0.914 0.884-1.348 1.342l-0.498 0.537c-11.381 12.544-11.658 32.194-0.22 45.087 12.027 13.556 32.451 14.508 45.62 2.127l1.905-1.833zM554.671 703.997c0 23.564 19.102 42.667 42.667 42.667h213.333c70.69 0 128-57.307 128-128v-426.668c0-70.69-57.31-128-128-128h-597.334c-70.447 0-127.602 56.913-127.998 127.266-0.007 0.418-0.007 0.836-0.002 1.254v354.288c0 23.564 19.102 42.667 42.667 42.667s42.667-19.102 42.667-42.667v-272.859l146.199 102.34c14.813 10.368 34.554 10.274 49.267-0.235l118.318-84.514 166.502 185.003c8.141 9.045 19.755 14.182 31.923 14.123s23.731-5.312 31.782-14.434l138.675-157.163v299.599c0 23.564-19.102 42.667-42.667 42.667h-213.333c-23.565 0-42.667 19.103-42.667 42.667zM682.355 383.868l-159.97-177.745c-14.524-16.137-38.848-18.795-56.516-6.178l-124.781 89.131-165.928-116.151c7.002-13.986 21.468-23.595 38.177-23.595h597.334c22.938 0 41.651 18.103 42.624 40.802l-170.94 193.737z" />
<glyph unicode="&#xe914;" glyph-name="24_coloring" d="M243.572 379.452c-49.987 49.988-49.987 131.034 0 181.019l301.7 301.699c16.661 16.662 43.678 16.662 60.339 0s16.661-43.677 0-60.34l-10.97-10.971 301.696-301.699c49.988-49.988 49.988-131.034 0-181.018l-200.218-200.222c-49.988-49.984-131.034-49.984-181.018 0l-271.53 271.531zM534.298 730.519l-230.386-230.389c-16.663-16.661-16.663-43.678 0-60.339l33.881-33.882 409.45 111.667-212.945 212.943zM575.441 168.265c16.661-16.666 43.678-16.666 60.339 0l200.218 200.218c16.661 16.661 16.661 43.678 0 60.339l-19.26 19.26-409.449-111.667 168.152-168.149zM244.231 303.723c-4.242 7.275-14.749 7.275-18.991 0l-64.593-110.729c-33.356-57.182 7.89-128.99 74.089-128.99s107.444 71.808 74.089 128.99l-64.593 110.729z" />
<glyph unicode="&#xe915;" glyph-name="24_custom" d="M170.667 746.667c0 23.564 19.103 42.667 42.667 42.667h74.667c23.564 0 42.667 19.103 42.667 42.667s-19.103 42.667-42.667 42.667h-74.667c-70.692 0-128-57.308-128-128v-74.667c0-23.564 19.103-42.667 42.667-42.667s42.667 19.103 42.667 42.667v74.667zM437.333 874.667c-23.564 0-42.667-19.103-42.667-42.667s19.103-42.667 42.667-42.667h149.333c23.565 0 42.667 19.103 42.667 42.667s-19.102 42.667-42.667 42.667h-149.333zM736 874.667c-23.565 0-42.667-19.103-42.667-42.667s19.102-42.667 42.667-42.667h74.667c23.565 0 42.667-19.103 42.667-42.667v-74.667c0-23.564 19.102-42.667 42.667-42.667s42.667 19.103 42.667 42.667v74.667c0 70.692-57.306 128-128 128h-74.667zM170.667 522.667c0 23.564-19.103 42.667-42.667 42.667s-42.667-19.103-42.667-42.667v-149.333c0-23.565 19.103-42.667 42.667-42.667s42.667 19.102 42.667 42.667v149.333zM938.667 522.667c0 23.564-19.102 42.667-42.667 42.667s-42.667-19.103-42.667-42.667v-149.333c0-23.565 19.102-42.667 42.667-42.667s42.667 19.102 42.667 42.667v149.333zM170.667 224c0 23.565-19.103 42.667-42.667 42.667s-42.667-19.102-42.667-42.667v-74.667c0-70.694 57.308-128 128-128h74.667c23.564 0 42.667 19.102 42.667 42.667s-19.103 42.667-42.667 42.667h-74.667c-23.564 0-42.667 19.102-42.667 42.667v74.667zM938.667 224c0 23.565-19.102 42.667-42.667 42.667s-42.667-19.102-42.667-42.667v-74.667c0-23.565-19.102-42.667-42.667-42.667h-74.667c-23.565 0-42.667-19.102-42.667-42.667s19.102-42.667 42.667-42.667h74.667c70.694 0 128 57.306 128 128v74.667zM437.333 106.667c-23.564 0-42.667-19.102-42.667-42.667s19.103-42.667 42.667-42.667h149.333c23.565 0 42.667 19.102 42.667 42.667s-19.102 42.667-42.667 42.667h-149.333zM298.903 596.314c-13.342 40.026 24.737 78.106 64.763 64.763l323.284-107.761c45.568-15.19 47.023-79.115 2.189-96.361l-90.778-34.914 97.741-97.741c16.661-16.661 16.661-43.678 0-60.339-16.666-16.661-43.678-16.661-60.339 0l-97.779 97.779-34.961-90.897c-17.242-44.834-81.169-43.383-96.359 2.189l-107.761 323.281zM401.445 558.535l56.087-168.259 22.989 59.776c5.201 13.521 15.889 24.205 29.41 29.406l59.776 22.989-168.262 56.088z" />
<glyph unicode="&#xe916;" glyph-name="24_photo" d="M341.333 533.333c47.128 0 85.333 38.205 85.333 85.333s-38.205 85.333-85.333 85.333c-47.128 0-85.333-38.205-85.333-85.333s38.205-85.333 85.333-85.333zM85.333 718.222c0 86.402 70.042 156.445 156.445 156.445h540.443c86.404 0 156.446-70.042 156.446-156.445v-540.443c0-86.404-70.042-156.446-156.446-156.446h-540.443c-86.402 0-156.445 70.042-156.445 156.446v540.443zM241.778 789.333c-39.274 0-71.111-31.837-71.111-71.111v-540.443c0-5.803 0.695-11.443 2.007-16.845l442.162 321.57c15.744 11.452 37.239 10.795 52.254-1.6l186.244-153.724v391.041c0 39.274-31.838 71.111-71.113 71.111h-540.443zM782.221 106.667c39.275 0 71.113 31.838 71.113 71.113v38.754l-215.057 177.506-395.139-287.373h539.084z" />
<glyph unicode="&#xe917;" glyph-name="24_watermark_add" d="M170.667 661.333c0-23.564-19.103-42.667-42.667-42.667s-42.667 19.103-42.667 42.667v85.333c0 70.692 57.308 128 128 128h85.333c23.564 0 42.667-19.103 42.667-42.667s-19.103-42.667-42.667-42.667h-85.333c-23.564 0-42.667-19.103-42.667-42.667v-85.333zM170.667 234.667c0 23.565-19.103 42.667-42.667 42.667s-42.667-19.102-42.667-42.667v-85.333c0-70.694 57.308-128 128-128h85.333c23.564 0 42.667 19.102 42.667 42.667s-19.103 42.667-42.667 42.667h-85.333c-23.564 0-42.667 19.102-42.667 42.667v85.333zM896 277.333c-23.565 0-42.667-19.102-42.667-42.667v-85.333c0-23.565-19.102-42.667-42.667-42.667h-85.333c-23.565 0-42.667-19.102-42.667-42.667s19.102-42.667 42.667-42.667h85.333c70.694 0 128 57.306 128 128v85.333c0 23.565-19.102 42.667-42.667 42.667zM853.333 661.333c0-23.564 19.102-42.667 42.667-42.667s42.667 19.103 42.667 42.667v85.333c0 70.692-57.306 128-128 128h-85.333c-23.565 0-42.667-19.103-42.667-42.667s19.102-42.667 42.667-42.667h85.333c23.565 0 42.667-19.103 42.667-42.667v-85.333zM298.667 448c0 23.565 19.103 42.667 42.667 42.667h128v128c0 23.564 19.102 42.667 42.667 42.667s42.667-19.102 42.667-42.667v-128h128c23.565 0 42.667-19.102 42.667-42.667s-19.102-42.667-42.667-42.667h-128v-128c0-23.565-19.102-42.667-42.667-42.667s-42.667 19.102-42.667 42.667v128h-128c-23.564 0-42.667 19.102-42.667 42.667z" />
<glyph unicode="&#xe918;" glyph-name="20_edit" d="M548.204 360.596l409.6 409.599c19.994 19.995 19.994 52.413 0 72.408s-52.413 19.995-72.407 0l-409.601-409.601c-19.995-19.994-19.995-52.413 0-72.407s52.414-19.994 72.408 0zM256 857.6c-84.831 0-153.6-68.769-153.6-153.6v-512c0-84.833 68.769-153.6 153.6-153.6h512c84.833 0 153.6 68.767 153.6 153.6v307.2c0 28.277-22.922 51.2-51.2 51.2s-51.2-22.923-51.2-51.2v-307.2c0-28.278-22.922-51.2-51.2-51.2h-512c-28.277 0-51.2 22.922-51.2 51.2v512c0 28.277 22.923 51.2 51.2 51.2h409.6c28.278 0 51.2 22.923 51.2 51.2s-22.922 51.2-51.2 51.2h-409.6z" />
<glyph unicode="&#xe919;" glyph-name="20_history" d="M392 640h-94.671c52.762 58.954 129.402 96 214.671 96 159.058 0 288-128.942 288-288s-128.942-288-288-288c-159.058 0-288 128.942-288 288 0 17.673-14.327 32-32 32s-32-14.327-32-32c0-194.406 157.596-352 352-352 194.406 0 352 157.594 352 352 0 194.404-157.594 352-352 352-96.769 0-184.395-39.057-248-102.206v70.206c0 17.673-14.327 32-32 32s-32-14.327-32-32v-160c0-17.673 14.327-32 32-32h160c17.673 0 32 14.327 32 32s-14.327 32-32 32zM544.015 543.997c0 17.673-14.326 32.001-32 32.003-17.672 0.002-32-14.324-32.002-31.997l-0.014-131.295c-0.001-8.678 3.526-16.988 9.771-23.020l95.998-92.708c12.713-12.278 32.973-11.924 45.251 0.788s11.924 32.973-0.788 45.251l-86.231 83.267 0.015 117.711z" />
<glyph unicode="&#xe91a;" glyph-name="20_more_r" d="M319.869 840.115c18.62 21.281 50.967 23.437 72.247 4.816l409.599-358.4c11.11-9.722 17.485-23.768 17.485-38.531 0-14.766-6.374-28.81-17.485-38.533l-409.599-358.4c-21.281-18.621-53.627-16.466-72.247 4.818-18.621 21.279-16.464 53.627 4.816 72.248l365.562 319.867-365.562 319.867c-21.281 18.62-23.437 50.967-4.816 72.247z" />
<glyph unicode="&#xe91b;" glyph-name="20_reset" d="M657.92 814.946c-10.506 26.254 2.268 56.051 28.518 66.553 26.255 10.502 56.054-2.268 66.555-28.522l84.905-212.265c5.652-14.124 4.731-30.027-2.519-43.402-7.245-13.375-20.060-22.836-34.975-25.819l-212.265-42.454c-27.73-5.545-54.702 12.437-60.247 40.165s12.436 54.701 40.161 60.247l88.55 17.709c-46.459 31.999-102.723 50.692-163.379 50.692-159.293 0-288.425-129.132-288.425-288.424s129.132-288.425 288.425-288.425c134.323 0 247.322 91.868 279.342 216.279 7.045 27.387 34.959 43.873 62.346 36.823 27.382-7.050 43.868-34.959 36.823-62.346-43.387-168.556-196.332-293.156-378.511-293.156-215.847 0-390.825 174.976-390.825 390.825 0 215.846 174.978 390.824 390.825 390.824 69.094 0 134.016-17.952 190.336-49.413l-25.641 64.109z" />
<glyph unicode="&#xe91c;" glyph-name="20_right_select" d="M810.26 646.637c10.737-9.201 11.976-25.362 2.775-36.097l-307.198-358.4c-4.641-5.412-11.329-8.648-18.455-8.919-7.126-0.276-14.042 2.437-19.084 7.475l-204.8 204.802c-9.998 9.997-9.998 26.206 0 36.204s26.206 9.998 36.204 0l185.252-185.254 289.21 337.413c9.201 10.735 25.359 11.978 36.096 2.777z" />
<glyph unicode="&#xe91d;" glyph-name="16_crop_edit" d="M890.074 763.265c2.426-5.497 4.403-11.91 5.926-19.238 1.517-7.329 2.278-14.963 2.278-22.903s-1.523-15.879-4.563-23.819c-3.034-7.94-7.898-15.574-14.586-22.903-7.296-7.329-13.83-13.741-19.61-19.238-5.773-5.497-10.79-10.383-15.046-14.658-4.864-4.886-9.421-9.161-13.677-12.826l-170.528 171.314c7.296 6.718 15.962 14.81 25.99 24.277s18.387 16.948 25.075 22.445c8.512 6.718 17.331 11.451 26.445 14.2 9.12 2.748 18.086 3.97 26.906 3.664 8.813-0.305 17.325-1.679 25.53-4.122 8.211-2.443 15.354-5.191 21.434-8.245 12.768-6.718 26.899-18.475 42.4-35.27 15.507-16.796 27.514-34.355 36.026-52.676zM179.694 316.198c3.647 3.667 12.159 12.369 25.533 26.111s30.093 30.689 50.155 50.844l336.494 338.047 170.53-172.23-196.063-196.965-72.952-74.204c-24.318-23.821-46.204-45.651-65.658-65.504-19.454-19.846-35.564-36.186-48.331-49.011s-20.366-20.154-22.798-21.984c-6.079-5.498-13.071-11.302-20.973-17.408s-16.111-10.995-24.622-14.656c-8.511-4.275-20.973-9.472-37.388-15.578s-33.588-12.064-51.523-17.862c-17.934-5.805-34.957-10.842-51.067-15.117s-28.117-7.021-36.020-8.243c-16.414-1.837-27.357 0.608-32.829 7.328s-6.991 18.016-4.559 33.894c1.216 8.55 4.104 20.922 8.663 37.101 4.559 16.186 9.423 32.986 14.591 50.387 5.167 17.408 10.183 33.44 15.046 48.096 4.863 14.662 8.815 24.736 11.855 30.234 3.647 8.55 7.751 16.339 12.311 23.36 4.559 7.027 11.094 14.81 19.606 23.36z" />
<glyph unicode="&#xe91e;" glyph-name="16_close" d="M273.942 753.784c-18.745 18.746-49.137 18.746-67.882 0.001s-18.746-49.137-0.001-67.882l237.97-237.976-237.965-237.969c-18.745-18.746-18.745-49.139 0.001-67.885s49.137-18.746 67.882 0l237.964 237.971 237.966-237.971c18.746-18.746 49.133-18.746 67.878 0s18.746 49.139 0 67.885l-237.963 237.969 237.969 237.976c18.746 18.745 18.746 49.137 0 67.882s-49.139 18.744-67.885-0.001l-237.966-237.974-237.967 237.974z" />
<glyph unicode="&#xe91f;" glyph-name="16_reset" d="M706.714 813.593c-10.157 33.855 9.056 69.535 42.912 79.691s69.536-9.055 79.693-42.911l64-213.333c5.107-17.032 2.899-35.423-6.093-50.763-8.998-15.34-23.968-26.246-41.325-30.103l-192-42.667c-34.506-7.668-68.694 14.088-76.362 48.593s14.088 68.692 48.593 76.359l51.507 11.446c-44.23 33.858-99.88 54.063-160.517 54.063-145.175 0-261.121-115.569-261.121-256 0-140.429 115.946-256.001 261.121-256.001 122.296 0 224.21 82.253 252.959 192.193 8.947 34.196 43.917 54.668 78.112 45.726s54.669-43.913 45.728-78.109c-43.437-166.1-196.109-287.809-376.799-287.809-213.944 0-389.121 170.97-389.121 384.001s175.178 384 389.121 384c73.277 0 141.932-20.027 200.543-54.87l-10.95 36.494z" />
<glyph unicode="&#xe920;" glyph-name="36_cutting" d="M768 874.667c0 15.709 12.735 28.444 28.444 28.444s28.444-12.735 28.444-28.444v-113.778h85.333c15.71 0 28.444-12.735 28.444-28.444s-12.735-28.444-28.444-28.444h-85.333v-455.111c0-47.13-38.204-85.333-85.333-85.333h-483.556v-113.778c0-15.71-12.735-28.444-28.444-28.444s-28.444 12.735-28.444 28.444v113.778h-85.333c-15.709 0-28.444 12.735-28.444 28.444s12.735 28.444 28.444 28.444h85.333v455.111c0 47.128 38.205 85.333 85.333 85.333h483.556v113.778zM768 704h-483.556c-15.71 0-28.444-12.735-28.444-28.444v-455.111h483.556c15.71 0 28.444 12.735 28.444 28.444v455.111z" />
<glyph unicode="&#xe921;" glyph-name="36_proportion1" d="M768 704v-512h-512v512h512zM256 760.889c-31.419 0-56.889-25.47-56.889-56.889v-512c0-31.42 25.47-56.889 56.889-56.889h512c31.42 0 56.889 25.469 56.889 56.889v512c0 31.419-25.469 56.889-56.889 56.889h-512z" />
<glyph unicode="&#xe922;" glyph-name="36_proportion2" d="M824.889 675.556v-426.667h-625.778v426.667h625.778zM199.111 732.444c-31.419 0-56.889-25.47-56.889-56.889v-426.667c0-31.42 25.47-56.889 56.889-56.889h625.778c31.42 0 56.889 25.469 56.889 56.889v426.667c0 31.419-25.469 56.889-56.889 56.889h-625.778z" />
<glyph unicode="&#xe923;" glyph-name="36_proportion3" d="M739.556 135.111h-426.667v625.778h426.667v-625.778zM796.444 760.889c0 31.419-25.469 56.889-56.889 56.889h-426.667c-31.419 0-56.889-25.47-56.889-56.889v-625.778c0-31.42 25.47-56.889 56.889-56.889h426.667c31.42 0 56.889 25.469 56.889 56.889v625.778z" />
<glyph unicode="&#xe924;" glyph-name="36_proportion4" d="M853.333 704v-512h-625.778v512h625.778zM227.556 760.889c-31.419 0-56.889-25.47-56.889-56.889v-512c0-31.42 25.47-56.889 56.889-56.889h625.778c31.42 0 56.889 25.469 56.889 56.889v512c0 31.419-25.469 56.889-56.889 56.889h-625.778z" />
<glyph unicode="&#xe925;" glyph-name="36_proportion5" d="M768 135.111h-512v625.778h512v-625.778zM824.889 760.889c0 31.419-25.469 56.889-56.889 56.889h-512c-31.419 0-56.889-25.47-56.889-56.889v-625.778c0-31.42 25.47-56.889 56.889-56.889h512c31.42 0 56.889 25.469 56.889 56.889v625.778z" />
<glyph unicode="&#xe926;" glyph-name="36_proportion6" d="M881.778 590.222v-284.444h-739.556v284.444h739.556zM142.222 647.111c-31.419 0-56.889-25.469-56.889-56.889v-284.444c0-31.42 25.47-56.889 56.889-56.889h739.556c31.42 0 56.889 25.469 56.889 56.889v284.444c0 31.42-25.469 56.889-56.889 56.889h-739.556z" />
<glyph unicode="&#xe927;" glyph-name="36_proportion7" d="M654.222 78.222h-284.444v739.556h284.444v-739.556zM711.111 817.778c0 31.419-25.469 56.889-56.889 56.889h-284.444c-31.42 0-56.889-25.47-56.889-56.889v-739.556c0-31.42 25.469-56.889 56.889-56.889h284.444c31.42 0 56.889 25.469 56.889 56.889v739.556z" />
<glyph unicode="&#xe928;" glyph-name="36_sx" d="M490.402 779.371c11.352 13.283 31.844 13.283 43.196 0l108.82-127.331c15.815-18.506 2.705-47.095-21.595-47.095h-217.646c-24.3 0-37.41 28.59-21.595 47.095l108.82 127.331zM170.667 433.778c0 15.755 12.735 28.527 28.444 28.527h625.778c15.71 0 28.444-12.772 28.444-28.527s-12.735-28.527-28.444-28.527h-625.778c-15.709 0-28.444 12.772-28.444 28.527zM490.402 88.183c11.352-13.281 31.844-13.281 43.196 0l108.82 127.332c15.815 18.506 2.705 47.095-21.595 47.095h-217.646c-24.3 0-37.41-28.59-21.595-47.095l108.82-127.332z" />
<glyph unicode="&#xe929;" glyph-name="36_turnleft" d="M241.403 664.314c105.045 131.725 293.412 170.445 443.756 83.645 165.663-95.645 222.424-307.48 126.777-473.143-95.644-165.666-307.479-222.427-473.142-126.78-13.605 7.854-31.002 3.194-38.858-10.411-7.854-13.605-3.191-31.002 10.414-38.855 192.873-111.357 439.498-45.275 550.855 147.601 111.354 192.873 45.272 439.499-147.601 550.855-175.135 101.114-394.587 55.928-516.844-97.639l-13.165 49.133c-4.066 15.174-19.663 24.179-34.837 20.113s-24.179-19.663-20.113-34.837l32.336-120.681c4.066-15.172 19.663-24.178 34.837-20.113l120.68 32.336c15.175 4.068 24.181 19.664 20.113 34.839-4.065 15.175-19.664 24.179-34.836 20.113l-60.37-16.176z" />
<glyph unicode="&#xe92a;" glyph-name="36_turnright" d="M811.042 664.314c-105.045 131.725-293.413 170.445-443.756 83.645-165.663-95.645-222.424-307.48-126.778-473.143 95.645-165.666 307.48-222.427 473.143-126.78 13.605 7.854 31.002 3.194 38.858-10.411 7.854-13.605 3.191-31.002-10.414-38.855-192.873-111.357-439.498-45.275-550.855 147.601-111.356 192.873-45.272 439.499 147.6 550.855 175.135 101.114 394.587 55.928 516.844-97.639l13.164 49.133c4.068 15.174 19.664 24.179 34.839 20.113s24.178-19.663 20.113-34.837l-32.336-120.681c-4.068-15.172-19.664-24.178-34.839-20.113l-120.678 32.336c-15.175 4.068-24.181 19.664-20.113 34.839 4.065 15.175 19.664 24.179 34.836 20.113l60.37-16.176z" />
<glyph unicode="&#xe92b;" glyph-name="36_zy" d="M843.77 469.598c12.752-11.352 12.752-31.844 0-43.196l-122.24-108.82c-17.764-15.815-45.21-2.705-45.21 21.595v217.646c0 24.3 27.446 37.41 45.21 21.595l122.24-108.82zM512 789.333c15.127 0 27.386-12.735 27.386-28.444v-625.778c0-15.71-12.262-28.444-27.386-28.444-15.127 0-27.386 12.735-27.386 28.444v625.778c0 15.709 12.26 28.444 27.386 28.444zM180.231 469.598c-12.752-11.352-12.752-31.844 0-43.196l122.239-108.82c17.764-15.815 45.21-2.705 45.21 21.595v217.646c0 24.3-27.446 37.41-45.21 21.595l-122.239-108.82z" />
<glyph unicode="&#xe92c;" glyph-name="32_top" d="M512 160c17.674 0 32 14.326 32 32v444.304l171.69-141.030c13.658-11.219 33.821-9.242 45.040 4.416 11.216 13.654 9.238 33.821-4.416 45.037l-224 184.001c-11.805 9.697-28.819 9.697-40.624 0l-224-184.001c-13.657-11.216-15.633-31.382-4.416-45.037 11.218-13.658 31.382-15.635 45.039-4.416l171.687 141.030v-444.304c0-17.674 14.326-32 32-32z" />
<glyph unicode="&#xe92d;" glyph-name="24_adjust_trans" d="M628.941 689.1c15.334 17.891 42.27 19.963 60.16 4.628l149.333-128c13.559-11.62 18.445-30.452 12.25-47.2-6.195-16.742-22.161-27.861-40.017-27.861h-597.331c-23.564 0-42.667 19.102-42.667 42.667s19.102 42.666 42.667 42.666h481.995l-61.76 52.939c-17.894 15.335-19.964 42.271-4.629 60.162zM395.063 206.899c-15.335-17.89-42.271-19.964-60.162-4.629l-149.333 128c-13.556 11.622-18.444 30.451-12.25 47.198s22.161 27.866 40.017 27.866h597.331c23.565 0 42.667-19.102 42.667-42.667s-19.102-42.667-42.667-42.667h-481.992l61.761-52.941c17.891-15.334 19.963-42.27 4.628-60.16z" />
<glyph unicode="&#xe92e;" glyph-name="24_automatic" d="M234.667 746.667c-11.782 0-21.333-9.551-21.333-21.333v-153.212c0-23.564-19.103-42.666-42.667-42.666s-42.667 19.102-42.667 42.666v153.212c0 58.91 47.756 106.667 106.667 106.667h153.212c23.564 0 42.666-19.103 42.666-42.667s-19.102-42.667-42.666-42.667h-153.212zM593.455 789.333c0 23.564 19.102 42.667 42.667 42.667h153.212c58.91 0 106.667-47.756 106.667-106.667v-153.212c0-23.564-19.102-42.666-42.667-42.666s-42.667 19.102-42.667 42.666v153.212c0 11.782-9.553 21.333-21.333 21.333h-153.212c-23.565 0-42.667 19.103-42.667 42.667zM170.667 366.545c23.564 0 42.667-19.102 42.667-42.667v-153.212c0-11.78 9.551-21.333 21.333-21.333h153.212c23.564 0 42.666-19.102 42.666-42.667s-19.102-42.667-42.666-42.667h-153.212c-58.91 0-106.667 47.757-106.667 106.667v153.212c0 23.565 19.103 42.667 42.667 42.667zM853.333 366.545c23.565 0 42.667-19.102 42.667-42.667v-153.212c0-58.91-47.757-106.667-106.667-106.667h-153.212c-23.565 0-42.667 19.102-42.667 42.667s19.102 42.667 42.667 42.667h153.212c11.78 0 21.333 9.553 21.333 21.333v153.212c0 23.565 19.102 42.667 42.667 42.667zM622.050 398.289c11.447 21.129 17.95 45.325 17.95 71.044 0 82.475-66.859 149.333-149.333 149.333s-149.333-66.859-149.333-149.333c0-82.475 66.859-149.333 149.333-149.333 25.719 0 49.916 6.502 71.044 17.95l48.119-48.119c16.661-16.661 43.678-16.661 60.339 0s16.661 43.678 0 60.339l-48.119 48.119zM490.667 405.333c-35.345 0-64 28.655-64 64s28.655 64 64 64c35.345 0 64-28.655 64-64s-28.655-64-64-64z" />
<glyph unicode="&#xe92f;" glyph-name="24_watermark_area" d="M170.667 661.333c0-23.564-19.103-42.667-42.667-42.667s-42.667 19.103-42.667 42.667v85.333c0 70.692 57.308 128 128 128h85.333c23.564 0 42.667-19.103 42.667-42.667s-19.103-42.667-42.667-42.667h-85.333c-23.564 0-42.667-19.103-42.667-42.667v-85.333zM170.667 234.667c0 23.565-19.103 42.667-42.667 42.667s-42.667-19.102-42.667-42.667v-85.333c0-70.694 57.308-128 128-128h85.333c23.564 0 42.667 19.102 42.667 42.667s-19.103 42.667-42.667 42.667h-85.333c-23.564 0-42.667 19.102-42.667 42.667v85.333zM896 277.333c-23.565 0-42.667-19.102-42.667-42.667v-85.333c0-23.565-19.102-42.667-42.667-42.667h-85.333c-23.565 0-42.667-19.102-42.667-42.667s19.102-42.667 42.667-42.667h85.333c70.694 0 128 57.306 128 128v85.333c0 23.565-19.102 42.667-42.667 42.667zM853.333 661.333c0-23.564 19.102-42.667 42.667-42.667s42.667 19.103 42.667 42.667v85.333c0 70.692-57.306 128-128 128h-85.333c-23.565 0-42.667-19.103-42.667-42.667s19.102-42.667 42.667-42.667h85.333c23.565 0 42.667-19.103 42.667-42.667v-85.333zM352.565 562.184l-91.488-91.489c-36.102-36.1-36.102-94.635 0-130.735l78.222-78.221c17.337-17.34 40.85-27.076 65.368-27.076h278.047c23.565 0 42.667 19.102 42.667 42.667 0 23.561-19.102 42.667-42.667 42.667h-95.006l136.922 149.367c33.442 36.484 32.218 92.837-2.778 127.835l-101.769 101.767c-36.1 36.102-94.635 36.102-130.735 0l-134.199-134.197c-0.447-0.41-0.887-0.832-1.32-1.265s-0.855-0.873-1.265-1.32zM559.744 638.626l101.764-101.768c2.692-2.692 2.79-7.028 0.218-9.835l-100.949-110.123-116.407 116.407 105.318 105.318c2.778 2.777 7.279 2.777 10.057 0zM503.057 353.937l-31.113-33.941h-67.278c-1.886 0-3.695 0.747-5.029 2.082l-78.222 78.221c-2.777 2.778-2.777 7.279 0 10.057l62.611 62.609 119.030-119.027z" />
<glyph unicode="&#xe930;" glyph-name="24_watermark_brush" d="M695.539 324.382c42.27 39.049 116.16 158.413 221.675 358.095 14.302 27.936 21.453 51.904 21.453 71.904 0 22.223-8.341 40.714-25.028 55.476s-36.151 22.143-58.398 22.143c-22.566 0-43.221-8.571-61.973-25.714l-304.149-275.713c-29.239-26.667-43.857-60.318-43.857-100.954 0-3.844 0.128-7.637 0.388-11.383 1.459-20.851 6.967-40.158 16.533-57.924 6.729-12.501 15.471-24.243 26.219-35.217 4.134-4.215 8.38-8.132 12.745-11.746 16.602-13.739 34.889-23.095 54.857-28.070 11.328-2.82 23.198-4.228 35.61-4.228 10.197 0 20.126 1.015 29.79 3.046 26.769 5.628 51.482 19.055 74.138 40.286zM541.393 473.254l304.218 275.777c6.020 5.506 8.61 5.424 9.489 5.396l0.141-0.003c2.377 0 3.422-0.361 3.78-0.497 0.269-0.102 0.913-0.366 1.967-1.152-0.465-4.362-2.82-15.311-12.612-34.531-52.254-98.87-96.098-176.749-131.678-234.221-37.035-59.831-61.265-91.081-73.801-102.66l-0.201-0.188-0.205-0.188c-17.993-16.862-34.146-22.366-50.88-22.366-18.577 0-33.186 5.845-47.791 20.757-14.869 15.181-20.988 30.656-20.988 50.24 0 19.452 5.901 32.064 18.492 43.571l0.068 0.064zM197.511 115.627c14.994 1.694 31.239 6.558 46.576 16.866 20.123 13.521 32.37 32.188 39.17 50.121zM544.418 241.523c-26.381 6.985-50.295 19.046-71.748 36.19-6.033 4.821-11.708 9.92-17.028 15.296-13.585 13.734-24.832 29.269-33.742 46.609-12.613-0.516-24.239-1.246-34.88-2.185-8.932-0.789-17.169-1.728-24.711-2.816-16.527-2.381-32.894-6.426-49.103-12.143-16.209-5.713-30.192-13.252-41.952-22.618s-22.803-21.427-33.132-36.19c-10.329-14.763-19.466-32.619-27.412-53.572-4.45-11.746-13.19-17.617-26.22-17.617-3.95 0-9.646 1.852-17.087 5.555-1.539 0.768-3.153 1.613-4.842 2.539-9.853 5.397-19.228 11.191-28.127 17.382-8.899 6.187-18.751 13.252-29.557 21.188s-17.321 12.698-19.546 14.285c0-13.171 0.57-26.027 1.709-38.571 1.656-18.227 4.515-35.797 8.578-52.702 1.092-4.544 2.272-9.041 3.537-13.487 0.056-0.196 0.113-0.397 0.169-0.593 9.216-32.145 22.905-60.992 41.068-86.549 18.275-25.715 42.508-45.952 72.7-60.715s64.835-22.144 103.926-22.144c68.33 0 123.709 21.269 166.137 63.808 42.428 42.543 63.006 97.621 61.734 165.239l-0.474 33.809zM283.257 182.613c6.193 16.329 12.549 28.177 18.427 36.578 6.875 9.826 12.991 16.073 17.899 19.985 4.103 3.264 10.212 6.891 19.417 10.138 11.568 4.079 23.007 6.886 34.371 8.521 2.761 0.401 5.697 0.781 8.812 1.139 12.335-15.36 26.383-29.338 42.059-41.865 13.492-10.778 27.764-20.16 42.761-28.105-2.381-40.277-16.23-69.146-38.771-91.746-25.835-25.903-60.411-41.015-111.212-41.015-29.204 0-51.87 5.466-69.851 14.259-19.343 9.455-33.257 21.491-43.54 35.959-2.115 2.978-4.154 6.029-6.118 9.165z" />
<glyph unicode="&#xe931;" glyph-name="24_watermark_choice" d="M170.833 661.333c0-23.564-19.103-42.667-42.667-42.667s-42.667 19.102-42.667 42.667v85.333c0 70.692 57.307 128 128 128h85.333c23.564 0 42.667-19.103 42.667-42.667s-19.103-42.667-42.667-42.667h-85.333c-23.564 0-42.667-19.103-42.667-42.667v-85.333zM170.833 234.667c0 23.565-19.103 42.667-42.667 42.667s-42.667-19.102-42.667-42.667v-85.333c0-70.694 57.307-128 128-128h85.333c23.564 0 42.667 19.102 42.667 42.667s-19.103 42.667-42.667 42.667h-85.333c-23.564 0-42.667 19.102-42.667 42.667v85.333zM896.166 277.333c-23.565 0-42.667-19.102-42.667-42.667v-85.333c0-23.565-19.102-42.667-42.667-42.667h-85.333c-23.565 0-42.667-19.102-42.667-42.667s19.102-42.667 42.667-42.667h85.333c70.694 0 128 57.306 128 128v85.333c0 23.565-19.102 42.667-42.667 42.667zM853.5 661.333c0-23.564 19.102-42.667 42.667-42.667s42.667 19.102 42.667 42.667v85.333c0 70.692-57.306 128-128 128h-85.333c-23.565 0-42.667-19.103-42.667-42.667s19.102-42.667 42.667-42.667h85.333c23.565 0 42.667-19.103 42.667-42.667v-85.333zM598.528 422.042l90.778 34.914c44.834 17.246 43.379 81.171-2.189 96.361l-323.284 107.761c-40.026 13.342-78.106-24.737-64.763-64.763l107.761-323.281c15.19-45.572 79.117-47.023 96.359-2.189l34.961 90.897 97.779-97.779c16.661-16.661 43.678-16.661 60.339 0s16.661 43.678 0 60.339l-97.741 97.741zM457.698 390.276l-56.087 168.259 168.262-56.088-59.776-22.989c-13.521-5.201-24.209-15.885-29.41-29.406l-22.989-59.776z" />
<glyph unicode="&#xe932;" glyph-name="24_watermark_lasso" d="M346.356 171.157c10.401-7.019 20.492-13.082 29.575-17.357 13.194-6.208 30.052-23.155 34.315-39.198 1.683-6.332 1.379-12.096-1.882-18.479-3.632-7.108-12.777-18.428-35.246-31.108-20.521-11.584-27.765-37.611-16.181-58.133 11.584-20.518 37.609-27.763 58.129-16.179 32.186 18.167 55.837 40.273 69.285 66.59 13.82 27.046 14.882 54.707 8.367 79.223-3.179 11.964-8.119 23.155-14.229 33.425 38.097 0.282 77.359 4.523 116.868 12.996 110.647 23.731 205.892 76.928 269.986 145.894 63.983 68.843 99.418 156.779 80.209 246.327-19.204 89.547-87.582 155.219-174.17 191.772-86.737 36.617-195.418 46.076-306.065 22.345-110.651-23.731-205.896-76.926-269.99-145.891-63.982-68.845-99.415-156.78-80.21-246.329 5.455-25.438 14.879-48.947 27.56-70.409-0.896-0.917-1.778-1.839-2.647-2.773-22.654-24.375-38.097-58.837-30.032-96.444s36.281-62.703 66.939-75.644c30.81-13.009 67.799-15.821 104.244-8.004 23.958 5.137 46.245 14.562 65.173 27.375zM257.836 585.293c50.793 54.653 129.745 100.038 225.373 120.547 95.633 20.509 186.253 11.493 254.989-17.524 68.89-29.082 112.158-76.203 123.921-131.051s-8.375-115.567-59.281-170.342c-50.795-54.652-129.745-100.036-225.374-120.546-61.090-13.103-120.132-14.157-172.732-5.645 0.916 9.532 0.448 19.422-1.722 29.542-8.065 37.602-36.281 62.703-66.94 75.644-30.81 13.005-67.799 15.821-104.244 8.004-5.261-1.131-10.442-2.466-15.524-3.998-8.413 14.212-14.375 29.303-17.748 45.026-11.763 54.848 8.377 115.571 59.281 170.343zM198.415 260.779c15.452-13.316 32.476-25.225 50.705-35.661-15.539-1.263-31.578-1.865-41.479 2.313-12.961 5.47-13.584 14.989-14.207 17.894-0.517 2.411-0.503 7.804 4.98 15.454z" />
<glyph unicode="&#xe933;" glyph-name="24_watermark_polygoanl" d="M871.484 789.332c0 17.555-10.752 33.319-27.098 39.725s-34.944 2.147-46.874-10.733l-230.054-248.406-413.801 179.629c-16.946 7.356-36.701 2.971-48.943-10.864s-14.19-33.977-4.826-49.901l217.696-370.219-179.789-113.246 45.479-72.205 164.629 103.697c10.494-22.639 28.912-40.858 51.693-51.093l-81.541-102.72c-14.651-18.458-11.566-45.295 6.89-59.947s45.295-11.567 59.945 6.891l136.215 171.597 323.725 131.081c16.111 6.524 26.654 22.165 26.654 39.548v417.167zM543.42 302.635c-10.185 46.601-51.691 81.489-101.346 81.489-20.136 0-38.93-5.734-54.84-15.663l-147.38 250.641 321.367-139.503c16.619-7.215 35.985-3.149 48.294 10.146l176.636 190.724v-279.552l-242.731-98.283zM423.667 280.388c0 10.163 8.239 18.402 18.407 18.402 10.163 0 18.402-8.239 18.402-18.402 0-10.167-8.239-18.406-18.402-18.406-10.167 0-18.407 8.239-18.407 18.406z" />
<glyph unicode="&#xe934;" glyph-name="20_gift" d="M460.8 448h-307.2v-409.6c0-28.278 22.923-51.2 51.2-51.2h256v460.8zM563.2 448v-460.8h256c28.278 0 51.2 22.922 51.2 51.2v409.6h-307.2zM412.42 794.631c-15.087 30.175-56.655 33.923-76.896 6.934-18.586-24.781-7.432-60.487 21.955-70.282l103.939-34.647-48.997 97.995zM294.564 832.285c43.078 57.438 131.542 49.461 163.651-14.756l53.74-107.48 53.739 107.48c32.108 64.217 120.571 72.194 163.651 14.756 39.557-52.738 15.816-128.728-46.725-149.575l-89.728-29.911h277.509c28.278 0 51.2-22.923 51.2-51.2v-102.4h-358.4v143.703l-0.046-0.015v9.918l-102.354-0.006v-153.6h-358.4v102.4c0 28.277 22.923 51.2 51.2 51.2h277.418l-89.731 29.911c-62.54 20.847-86.278 96.837-46.724 149.575zM611.487 794.631c15.089 30.175 56.658 33.923 76.897 6.934 18.586-24.781 7.434-60.487-21.955-70.282l-103.936-34.647 48.993 97.995z" />
<glyph unicode="&#xe935;" glyph-name="16_addlay" d="M384 576c0 17.673 14.327 32 32 32h64v64c0 17.673 14.327 32 32 32s32-14.327 32-32v-64h64c17.673 0 32-14.327 32-32s-14.327-32-32-32h-64v-64c0-17.673-14.327-32-32-32s-32 14.327-32 32v64h-64c-17.673 0-32 14.327-32 32zM527.876 859.784c-9.838 5.622-21.915 5.622-31.753 0l-448-256c-9.97-5.697-16.124-16.3-16.124-27.784s6.153-22.086 16.124-27.784l448-255.999c9.838-5.626 21.915-5.626 31.753 0l448.002 255.999c9.971 5.697 16.122 16.3 16.122 27.784s-6.15 22.086-16.122 27.784l-448.002 256zM512 356.856l-383.502 219.144 383.502 219.144 383.501-219.144-383.501-219.144zM79.882 347.779c-15.345 8.768-34.892 3.437-43.661-11.908s-3.437-34.892 11.907-43.66l448-256c9.837-5.619 21.915-5.619 31.752 0l448.003 256c15.341 8.768 20.672 28.316 11.904 43.66s-28.314 20.676-43.661 11.908l-432.122-246.927-432.124 246.927z" />
<glyph unicode="&#xe936;" glyph-name="16_plus" d="M274.745 338.745c24.994-24.991 65.516-24.991 90.51 0l146.745 146.746 146.746-146.746c24.992-24.991 65.517-24.991 90.509 0 24.992 24.994 24.992 65.516 0 90.51l-191.999 192c-24.994 24.993-65.516 24.993-90.51 0l-192-192c-24.993-24.994-24.993-65.516 0-90.51z" />
<glyph unicode="&#xe937;" glyph-name="16_reduce" d="M274.745 557.255c24.994 24.993 65.516 24.993 90.51 0l146.745-146.746 146.746 146.746c24.992 24.993 65.517 24.993 90.509 0s24.992-65.516 0-90.51l-191.999-191.999c-24.994-24.992-65.516-24.992-90.51 0l-192 191.999c-24.993 24.994-24.993 65.516 0 90.51z" />
<glyph unicode="&#xe938;" glyph-name="16_toolbar_pulldown" d="M591.196 267.418c-43.739-43.744-114.653-43.744-158.392 0l-210.745 210.742c-18.745 18.745-18.745 49.137 0 67.882s49.137 18.745 67.882 0l210.745-210.745c6.248-6.249 16.38-6.249 22.628-0.001l210.747 210.746c18.746 18.745 49.133 18.745 67.878 0s18.746-49.137 0-67.882l-210.743-210.742z" />
<glyph unicode="&#xe939;" glyph-name="16_withdraw" d="M310.628 790.626c12.496-12.497 12.495-32.758-0.002-45.254l-105.366-105.355h402.744c77.339 0 142.235-23.919 187.803-70.127 45.491-46.135 68.192-110.918 68.192-185.89 0-74.97-22.701-139.75-68.192-185.882-45.568-46.202-110.47-70.118-187.803-70.118h-352.005c-17.673 0-32 14.33-32 32s14.327 32 32 32h352.005c64.046 0 111.15 19.533 142.235 51.059 31.155 31.59 49.76 78.812 49.76 140.941s-18.605 109.355-49.766 140.953c-31.085 31.525-78.182 51.064-142.228 51.064h-402.756l105.379-105.391c12.496-12.497 12.495-32.758-0.002-45.254s-32.759-12.495-45.255 0.003l-160 160.017c-6.001 6.001-9.372 14.141-9.372 22.628s3.372 16.626 9.374 22.627l160 159.983c12.497 12.496 32.758 12.495 45.254-0.003z" />
<glyph unicode="&#xe93a;" glyph-name="16_about" d="M352 256c-17.673 0-32-14.33-32-32s14.327-32 32-32h256c17.673 0 32 14.33 32 32s-14.327 32-32 32h-96v288c0 17.673-14.327 32-32 32h-64c-17.673 0-32-14.327-32-32s14.327-32 32-32h32v-256h-96zM480 640c17.673 0 32 14.327 32 32s-14.327 32-32 32c-17.673 0-32-14.327-32-32s14.327-32 32-32zM960 416c0-265.094-214.906-480-480-480-265.097 0-480 214.906-480 480 0 265.097 214.903 480 480 480 265.094 0 480-214.903 480-480zM896 416c0 229.75-186.246 416-416 416-229.75 0-416-186.25-416-416 0-229.754 186.25-416 416-416 229.754 0 416 186.246 416 416z" />
<glyph unicode="&#xe93b;" glyph-name="32_text_underline" d="M288 160c0 17.674 14.327 32 32 32h384c17.674 0 32-14.326 32-32s-14.326-32-32-32h-384c-17.673 0-32 14.326-32 32zM320 768c17.674 0 32-14.327 32-32v-256c0-88.365 71.635-160 160-160s160 71.635 160 160v256c0 17.673 14.326 32 32 32s32-14.327 32-32v-256c0-123.712-100.288-224-224-224s-224 100.288-224 224v256c0 17.673 14.327 32 32 32z" />
<glyph unicode="&#xe93c;" glyph-name="32_log_loading" d="M576 736c0-35.346-28.653-64-64-64s-64 28.654-64 64c0 35.346 28.653 64 64 64s64-28.654 64-64zM384 640c0-35.347-28.653-64-64-64s-64 28.653-64 64c0 35.346 28.654 64 64 64s64-28.654 64-64zM352 240c0-26.509-21.491-48-48-48s-48 21.491-48 48c0 26.509 21.49 48 48 48s48-21.491 48-48zM736 624c0-8.835 7.165-16 16-16s16 7.165 16 16c0 8.835-7.165 16-16 16s-16-7.165-16-16zM736 224c0-17.674-14.326-32-32-32s-32 14.326-32 32c0 17.674 14.326 32 32 32s32-14.326 32-32zM256 432c0-26.509-21.49-48-48-48s-48 21.491-48 48c0 26.509 21.49 48 48 48s48-21.491 48-48zM544 144c0-26.509-21.491-48-48-48s-48 21.491-48 48c0 26.509 21.491 48 48 48s48-21.491 48-48zM864 416c0-17.674-14.326-32-32-32s-32 14.326-32 32c0 17.674 14.326 32 32 32s32-14.326 32-32z" />
<glyph unicode="&#xe93d;" glyph-name="32_text_italic" d="M608.986 768h127.014c17.674 0 32-14.327 32-32s-14.326-32-32-32h-103.67l-142.224-512h149.894c17.674 0 32-14.326 32-32s-14.326-32-32-32h-191.776c-0.131 0-0.262 0-0.397 0h-127.827c-17.673 0-32 14.326-32 32s14.327 32 32 32h103.683l142.221 512h-149.904c-17.674 0-32 14.327-32 32s14.326 32 32 32h190.995c0.659 0.021 1.325 0.021 1.99 0z" />
<glyph unicode="&#xe93e;" glyph-name="32_text_underline1" d="M288 160c0 17.674 14.327 32 32 32h384c17.674 0 32-14.326 32-32s-14.326-32-32-32h-384c-17.673 0-32 14.326-32 32zM320 768c17.674 0 32-14.327 32-32v-256c0-88.365 71.635-160 160-160s160 71.635 160 160v256c0 17.673 14.326 32 32 32s32-14.327 32-32v-256c0-123.712-100.288-224-224-224s-224 100.288-224 224v256c0 17.673 14.327 32 32 32z" />
<glyph unicode="&#xe93f;" glyph-name="32_log_close" d="M331.315 651.314c-6.25 6.249-16.38 6.249-22.629 0s-6.249-16.379 0-22.629l180.686-180.685-180.686-180.685c-6.249-6.25-6.249-16.381 0-22.63 6.248-6.246 16.379-6.246 22.629 0l180.685 180.688 180.685-180.688c6.25-6.246 16.381-6.246 22.63 0 6.246 6.25 6.246 16.381 0 22.63l-180.688 180.685 180.688 180.685c6.246 6.25 6.246 16.38 0 22.629-6.25 6.249-16.381 6.249-22.63 0l-180.685-180.686-180.685 180.686z" />
<glyph unicode="&#xe940;" glyph-name="32_log_show" d="M672 448c0-88.365-71.635-160-160-160s-160 71.635-160 160c0 88.365 71.635 160 160 160s160-71.635 160-160zM608 448c0 53.021-42.979 96-96 96s-96-42.979-96-96c0-53.021 42.979-96 96-96s96 42.979 96 96zM889.52 467.318c-79.066 104.416-158.765 169.811-237.046 204.814-78.736 35.204-154.352 38.877-223.072 22.519-135.619-32.283-240.803-141.384-296.454-229.573l-11.822-18.736 13.373-17.661c79.067-104.413 158.766-169.811 237.051-204.813 78.733-35.203 154.349-38.877 223.072-22.518 135.616 32.285 240.8 141.386 296.451 229.574l11.821 18.733-13.373 17.661zM397.67 282.294c-61.763 27.616-128.729 79.606-198.302 167.168 52.941 76.112 140.482 158.083 244.853 182.928 55.546 13.223 116.73 10.558 182.128-18.685 61.763-27.613 128.73-79.606 198.301-167.168-52.938-76.109-140.48-158.080-244.851-182.928-55.546-13.222-116.73-10.557-182.128 18.685z" />
<glyph unicode="&#xe941;" glyph-name="20_box_copy" d="M307.2 652.8c0 18.169 4.732 35.233 13.031 50.026 1.388 2.474 2.875 4.884 4.457 7.226 18.402 27.238 49.565 45.147 84.912 45.147h307.169c56.556 0 102.4-45.846 102.4-102.4v-310.559c0-38.723-21.489-72.422-53.192-89.825-14.51-7.88-31.534-12.575-49.208-12.575-1.772-54.999-46.94-99.041-102.369-99.041h-307.2c-56.554 0-102.4 45.844-102.4 102.4v307.2c0 56.554 45.846 102.4 102.4 102.4zM716.769 704h-307.169c-28.277 0-51.2-22.923-51.2-51.2h256c56.556 0 102.4-45.846 102.4-102.4v-259.359c28.262 0.015 51.169 22.932 51.169 51.2v310.559c0 28.277-22.922 51.2-51.2 51.2zM307.2 601.6c-28.277 0-51.2-22.923-51.2-51.2v-307.2c0-28.278 22.923-51.2 51.2-51.2h307.2c28.278 0 51.2 22.922 51.2 51.2v307.2c0 28.277-22.922 51.2-51.2 51.2h-307.2z" />
<glyph unicode="&#xe942;" glyph-name="32_log_hide" d="M652.474 672.133c78.282-35.003 157.981-100.398 237.046-204.814l13.373-17.661-11.821-18.733c-26.714-42.333-64.838-89.482-112.266-130.643l71.52-50.064-36.701-52.429-88.224 61.757c-39.29-26.051-83.158-46.858-130.781-58.195-68.723-16.358-144.339-12.685-223.072 22.518-78.284 35.002-157.984 100.4-237.051 204.813l-13.373 17.661 11.822 18.736c26.708 42.323 64.824 89.462 112.238 130.618l-71.56 50.092 36.702 52.431 88.26-61.784c39.298 26.060 83.18 46.877 130.815 58.216 68.72 16.359 144.336 12.685 223.072-22.519zM365.194 511.69c-8.477-19.517-13.178-41.053-13.178-63.69 0-88.365 71.635-160 160-160 42.64 0 81.382 16.678 110.064 43.869l-54.285 38c-15.725-11.248-34.986-17.869-55.795-17.869-53.021 0-96 42.979-96 96 0 8.899 1.21 17.514 3.475 25.693l-54.282 37.997zM456.186 526.118c15.728 11.254 34.998 17.882 55.814 17.882 53.021 0 96-42.979 96-96 0-8.906-1.213-17.53-3.482-25.715l54.304-38.013c8.486 19.526 13.194 41.078 13.194 63.728 0 88.365-71.635 160-160 160-42.656 0-81.411-16.691-110.093-43.898l54.262-37.984z" />
<glyph unicode="&#xe943;" glyph-name="36_home_gift" d="M483.556 419.556h-199.111v-250.311c0-18.85 15.283-34.133 34.133-34.133h164.978v284.444zM540.444 135.111h164.978c18.85 0 34.133 15.283 34.133 34.133v250.311h-199.111v-284.444zM261.689 590.222c-18.851 0-34.133-15.283-34.133-34.133v-79.644h256v113.778h-221.867zM540.444 590.222v-113.778h256v79.644c0 18.85-15.283 34.133-34.133 34.133h-221.867zM462.373 723c-23.518 45.459-86.246 51.199-117.623 10.764-29.807-38.413-12.399-94.765 33.88-109.676l105.114-33.866h56.576l105.116 33.866c46.279 14.911 63.684 71.262 33.877 109.676-31.377 40.435-94.106 34.695-117.621-10.764l-49.661-95.996-49.658 95.996zM367.223 716.326c18.642 24.025 55.913 20.614 69.885-6.395l46.433-89.759-96.188 30.99c-27.497 8.86-37.84 42.341-20.13 65.165zM656.842 716.326c17.71-22.823 7.367-56.304-20.13-65.165l-96.188-30.99 46.433 89.759c13.972 27.009 51.243 30.42 69.885 6.395z" />
<glyph unicode="&#xe944;" glyph-name="40_contrast" d="M512-12.8c-254.492 0-460.8 206.308-460.8 460.8s206.308 460.8 460.8 460.8c254.492 0 460.8-206.308 460.8-460.8s-206.308-460.8-460.8-460.8zM512-64c282.77 0 512 229.23 512 512s-229.23 512-512 512c-282.77 0-512-229.23-512-512s229.23-512 512-512zM153.6 448l256 179.2v-358.4l-256 179.2zM614.4 268.8l256 179.2-256 179.2v-358.4z" />
<glyph unicode="&#xe945;" glyph-name="32_automatic" d="M224 768c-17.673 0-32-14.327-32-32v-160c0-17.674-14.327-32-32-32s-32 14.326-32 32v160c0 53.019 42.981 96 96 96h160c17.674 0 32-14.327 32-32s-14.326-32-32-32h-160zM608 800c0 17.673 14.326 32 32 32h160c53.021 0 96-42.981 96-96v-160c0-17.674-14.326-32-32-32s-32 14.326-32 32v160c0 17.673-14.326 32-32 32h-160c-17.674 0-32 14.327-32 32zM160 352c17.673 0 32-14.326 32-32v-160c0-17.674 14.327-32 32-32h160c17.674 0 32-14.326 32-32s-14.326-32-32-32h-160c-53.019 0-96 42.979-96 96v160c0 17.674 14.327 32 32 32zM864 352c17.674 0 32-14.326 32-32v-160c0-53.021-42.979-96-96-96h-160c-17.674 0-32 14.326-32 32s14.326 32 32 32h160c17.674 0 32 14.326 32 32v160c0 17.674 14.326 32 32 32zM613.491 391.763c16.752 25.293 26.509 55.626 26.509 88.237 0 88.365-71.635 160-160 160s-160-71.635-160-160c0-88.365 71.635-160 160-160 32.611 0 62.944 9.757 88.237 26.509l81.136-81.136c12.496-12.496 32.758-12.496 45.254 0s12.496 32.758 0 45.254l-81.136 81.136zM480 384c-53.021 0-96 42.979-96 96s42.979 96 96 96c53.021 0 96-42.979 96-96s-42.979-96-96-96z" />
<glyph unicode="&#xe946;" glyph-name="32_close" d="M289.941 737.941c-18.745 18.745-49.137 18.745-67.882 0s-18.745-49.137 0-67.882l222.060-222.059-222.060-222.058c-18.745-18.746-18.745-49.139 0-67.885 18.745-18.742 49.137-18.742 67.882 0l222.059 222.061 222.058-222.061c18.746-18.742 49.139-18.742 67.885 0 18.742 18.746 18.742 49.139 0 67.885l-222.061 222.058 222.061 222.059c18.742 18.745 18.742 49.137 0 67.882-18.746 18.745-49.139 18.745-67.885 0l-222.058-222.060-222.059 222.060z" />
<glyph unicode="&#xe947;" glyph-name="32_cloud_failed" d="M240.561 529.034c19.178 121.15 122.866 216.56 251.202 216.56 107.229 0 202.182-69.92 237.501-165.488 99.203-15.651 176.31-104.973 176.31-214.397 0-103.52-72.326-188.573-166.778-211.021-18.598-4.419-34.317 10.608-34.317 28.166 0 15.546 11.718 27.478 25.552 30.573 66.966 14.973 115.923 76.621 115.923 152.282 0 85.373-68.621 154.97-152.086 154.97h-11.808l-1.622 7.597c-19.328 90.509-96.502 156.976-188.675 156.976-107.715 0-192.504-86.054-192.504-196.115v-8.518l-8.459-1.014c-63.483-7.6-112.804-64.848-112.804-134.467 0-66.358 50.045-123.229 112.845-132.938 14.995-2.317 28.629-14.669 28.629-31.632 0-16.339-13.509-30.957-31.211-28.966-96.202 10.822-169.884 92.963-169.884 193.536 0 84.176 52.364 156.195 122.186 183.898zM438.605 470.627c-12.496 12.496-32.758 12.496-45.254 0-12.499-12.496-12.499-32.758 0-45.254l73.373-73.373-73.373-73.373c-12.499-12.496-12.499-32.758 0-45.254 12.496-12.496 32.758-12.496 45.254 0l73.373 73.373 73.373-73.373c12.496-12.496 32.758-12.496 45.254 0s12.496 32.758 0 45.254l-73.373 73.373 73.373 73.373c12.496 12.496 12.496 32.758 0 45.254s-32.758 12.496-45.254 0l-73.373-73.373-73.373 73.373z" />
<glyph unicode="&#xe948;" glyph-name="32_cloud_ing" d="M491.763 745.594c-128.336 0-232.024-95.41-251.202-216.56-69.822-27.702-122.186-99.722-122.186-183.898 0-100.573 73.682-182.714 169.884-193.536 17.702-1.99 31.211 12.627 31.211 28.966 0 16.963-13.634 29.315-28.629 31.632-62.799 9.709-112.845 66.579-112.845 132.938 0 69.619 49.321 126.867 112.804 134.467l8.459 1.014v8.518c0 110.061 84.789 196.115 192.504 196.115 92.173 0 169.347-66.467 188.675-156.976l1.622-7.597h11.808c83.466 0 152.086-69.597 152.086-154.97 0-75.661-48.957-137.309-115.923-152.282-13.834-3.094-25.552-15.027-25.552-30.573 0-17.558 15.718-32.586 34.317-28.166 94.451 22.448 166.778 107.501 166.778 211.021 0 109.424-77.107 198.746-176.31 214.397-35.318 95.568-130.272 165.488-237.501 165.488zM534.605 470.627c-12.496 12.496-32.758 12.496-45.254 0l-96-96c-12.499-12.496-12.499-32.758 0-45.254 12.496-12.496 32.758-12.496 45.254 0l41.373 41.373v-210.746c0-17.674 14.326-32 32-32s32 14.326 32 32v210.746l41.373-41.373c12.496-12.496 32.758-12.496 45.254 0s12.496 32.758 0 45.254l-96 96z" />
<glyph unicode="&#xe949;" glyph-name="32_cloud_suc" d="M240.561 529.034c19.178 121.15 122.866 216.56 251.202 216.56 107.229 0 202.182-69.92 237.501-165.488 99.203-15.651 176.31-104.973 176.31-214.397 0-103.52-72.326-188.573-166.778-211.021-18.598-4.419-34.317 10.608-34.317 28.166 0 15.546 11.718 27.478 25.552 30.573 66.966 14.973 115.923 76.621 115.923 152.282 0 85.373-68.621 154.97-152.086 154.97h-11.808l-1.622 7.597c-19.328 90.509-96.502 156.976-188.675 156.976-107.715 0-192.504-86.054-192.504-196.115v-8.518l-8.459-1.014c-63.483-7.6-112.804-64.848-112.804-134.467 0-66.358 50.045-123.229 112.845-132.938 14.995-2.317 28.629-14.669 28.629-31.632 0-16.339-13.509-30.957-31.211-28.966-96.202 10.822-169.884 92.963-169.884 193.536 0 84.176 52.364 156.195 122.186 183.898zM517.235 264.083c-11.958-10.63-29.933-10.794-42.083-0.381l-112 96c-13.418 11.504-14.973 31.706-3.472 45.123 11.504 13.418 31.706 14.973 45.123 3.472l90.79-77.824 123.123 109.443c13.21 11.741 33.437 10.55 45.178-2.656 11.741-13.21 10.55-33.437-2.656-45.178l-144.003-128z" />
<glyph unicode="&#xe94a;" glyph-name="32_cloud" d="M501.389 736c-128.336 0-232.025-95.41-251.203-216.56-69.822-27.702-122.186-99.722-122.186-183.898 0-107.997 84.981-194.742 191.495-194.742l405.376 0.070c105.734 12.915 190.33 103.286 190.33 215.245 0 109.424-77.107 198.746-176.31 214.397-35.318 95.568-130.272 165.488-237.501 165.488zM308.884 479.542c0 110.061 84.786 196.115 192.505 196.115 92.173 0 169.344-66.47 188.675-156.976l1.622-7.597h11.808c83.466 0 152.083-69.597 152.083-154.97 0-81.712-57.056-147.056-132.368-154.973h-403.715c-71.339 0-131.874 61.37-131.874 134.4 0 69.619 49.322 126.867 112.804 134.467l8.459 1.014v8.518z" />
<glyph unicode="&#xe94b;" glyph-name="32_edit_adjust" d="M566.656 640h-374.656c-17.673 0-32 14.327-32 32s14.327 32 32 32h374.656c12.346 28.254 40.538 48 73.344 48s60.998-19.746 73.344-48h118.656c17.674 0 32-14.327 32-32s-14.326-32-32-32h-118.656c-12.346-28.256-40.538-48-73.344-48s-60.998 19.744-73.344 48zM592 672c0-26.51 21.491-48 48-48s48 21.49 48 48c0 26.51-21.491 48-48 48s-48-21.49-48-48zM160 224c0-17.674 14.327-32 32-32h374.656c12.346-28.256 40.538-48 73.344-48s60.998 19.744 73.344 48h118.656c17.674 0 32 14.326 32 32s-14.326 32-32 32h-118.656c-12.346 28.256-40.538 48-73.344 48s-60.998-19.744-73.344-48h-374.656c-17.673 0-32-14.326-32-32zM640 272c26.509 0 48-21.491 48-48s-21.491-48-48-48c-26.509 0-48 21.491-48 48s21.491 48 48 48zM192 480c-17.673 0-32-14.326-32-32s14.327-32 32-32h118.657c12.345-28.256 40.537-48 73.343-48s60.998 19.744 73.344 48h374.656c17.674 0 32 14.326 32 32s-14.326 32-32 32h-374.656c-12.346 28.256-40.538 48-73.344 48s-60.998-19.744-73.343-48h-118.657zM336 448c0 26.509 21.491 48 48 48s48-21.491 48-48c0-26.509-21.491-48-48-48s-48 21.491-48 48z" />
<glyph unicode="&#xe94c;" glyph-name="32_edit_aitools" d="M799.987 768c0-17.673-14.326-32-32-32s-32 14.327-32 32c0 17.673 14.326 32 32 32s32-14.327 32-32zM799.987 224c0-17.674-14.326-32-32-32-3.738 0-7.328 0.64-10.662 1.821-13.648-2.413-27.805 4.304-34.246 17.36l-85.29 172.819h-301.552l-81.034-164.198c-7.822-15.846-27.010-22.355-42.858-14.531-15.848 7.821-22.355 27.008-14.534 42.858l258.201 523.176c7.821 15.848 27.011 22.355 42.858 14.534 1.094-0.54 2.144-1.135 3.149-1.778 7.37-2.75 13.75-8.206 17.504-15.818l216.464-438.607v310.365c0 17.673 14.326 32 32 32s32-14.327 32-32v-416zM487.014 689.506l-119.19-241.506h238.378l-119.187 241.506z" />
<glyph unicode="&#xe94d;" glyph-name="32_edit_background" d="M800 832c18.608 0 35.978-5.294 50.691-14.458 18.579-11.571 32.922-29.31 40.15-50.359 3.35-9.773 5.158-20.272 5.158-31.183v-189.907l0.032 0.032v-90.509l-0.032-0.032v-295.584c0-53.021-42.979-96-96-96h-576c-53.019 0-96 42.979-96 96v576c0 53.019 42.981 96 96 96h576zM574.854 768l-382.854-382.854v-225.146c0-0.378 0.006-0.755 0.020-1.13l609.11 609.11c-0.374 0.013-0.752 0.020-1.13 0.020h-225.146zM568.416 128h231.584c17.674 0 32 14.326 32 32v231.584l-263.584-263.584zM832 482.093v226.25l-580.342-580.342h226.25l354.093 354.093zM484.342 768h-260.342c-17.673 0-32-14.327-32-32v-260.342l292.342 292.342z" />
<glyph unicode="&#xe94e;" glyph-name="32_edit_filter" d="M704 592c0 97.202-78.797 176-176 176s-176-78.798-176-176c0-29.926 7.469-58.106 20.643-82.781 63.338-9.702 118.518-44.163 155.357-93.197 36.838 49.034 92.019 83.494 155.357 93.197 13.174 24.675 20.643 52.854 20.643 82.781zM302.49 509.68c-9.375 25.674-14.49 53.398-14.49 82.32 0 132.548 107.453 240 240 240s240-107.452 240-240c0-28.922-5.117-56.646-14.49-82.32 116.685-16.301 206.49-116.502 206.49-237.68 0-132.547-107.453-240-240-240-78.509 0-148.214 37.696-192 95.978-43.786-58.282-113.491-95.978-192-95.978-132.548 0-240 107.453-240 240 0 121.178 89.805 221.379 206.49 237.68zM493.309 192.986c-8.621 24.746-13.309 51.331-13.309 79.014s4.688 54.269 13.309 79.014c-28.947 57.52-88.518 96.986-157.309 96.986-97.202 0-176-78.797-176-176s78.798-176 176-176c68.79 0 128.362 39.466 157.309 96.986zM720 96c97.203 0 176 78.797 176 176s-78.797 176-176 176c-97.203 0-176-78.797-176-176s78.797-176 176-176z" />
<glyph unicode="&#xe94f;" glyph-name="32_edit_material" d="M480 736c0 53.019-42.979 96-96 96h-160c-53.019 0-96-42.981-96-96v-160c0-53.021 42.981-96 96-96h256v256zM384 768c17.674 0 32-14.327 32-32v-192h-192c-17.673 0-32 14.326-32 32v160c0 17.673 14.327 32 32 32h160zM544 736c0 53.019 42.979 96 96 96h160c53.021 0 96-42.981 96-96v-160c0-53.021-42.979-96-96-96h-256v256zM640 768c-17.674 0-32-14.327-32-32v-192h192c17.674 0 32 14.326 32 32v160c0 17.673-14.326 32-32 32h-160zM640 64c-53.021 0-96 42.979-96 96v256h256c53.021 0 96-42.979 96-96v-160c0-53.021-42.979-96-96-96h-160zM800 128c17.674 0 32 14.326 32 32v160c0 17.674-14.326 32-32 32h-192v-192c0-17.674 14.326-32 32-32h160zM480 160c0-53.021-42.979-96-96-96h-160c-53.019 0-96 42.979-96 96v160c0 53.021 42.981 96 96 96h256v-256zM384 128c17.674 0 32 14.326 32 32v192h-192c-17.673 0-32-14.326-32-32v-160c0-17.674 14.327-32 32-32h160z" />
<glyph unicode="&#xe950;" glyph-name="32_edit_uploads" d="M162.737 554.013c20.589 156.891 154.768 277.987 317.263 277.987 124.813 0 232.874-71.454 285.619-175.568 113.078-38.854 194.381-146.109 194.381-272.432 0-122.528-76.515-227.184-184.371-268.794-19.814-7.645-39.629 8.147-39.629 29.386 0 14.643 9.738 27.318 23.226 33.024 80.378 34.013 136.774 113.613 136.774 206.384 0 102.189-68.454 188.474-162.077 215.341l-14.262 4.093-6.090 13.53c-40.112 89.105-129.645 151.037-233.571 151.037-134.013 0-244.004-102.997-255.081-234.128l-1.273-15.072-12.453-8.582c-50.319-34.682-83.193-92.614-83.193-158.218 0-85.507 55.896-157.958 133.143-182.81 15.198-4.89 26.857-18.23 26.857-34.195 0-19.658-17.329-35.021-36.277-29.789-108.238 29.878-187.723 129.053-187.723 246.794 0 82.128 38.699 155.21 98.737 202.013zM534.627 502.627c-12.496 12.496-32.758 12.496-45.254 0l-128-128c-12.496-12.496-12.496-32.758 0-45.254s32.758-12.496 45.254 0l73.373 73.373v-290.746c0-17.674 14.326-32 32-32s32 14.326 32 32v290.746l73.373-73.373c12.496-12.496 32.758-12.496 45.254 0s12.496 32.758 0 45.254l-128 128z" />
<glyph unicode="&#xe951;" glyph-name="32_fefine" d="M879.51 794.51c-49.987 49.987-131.034 49.987-181.021 0l-305.469-305.47c-3.786-3.786-6.563-8.461-8.074-13.6l-56.566-192.333c-3.306-11.232-0.208-23.376 8.070-31.654 8.282-8.282 20.422-11.379 31.658-8.074l192.333 56.57c5.136 1.51 9.811 4.285 13.597 8.070l305.472 305.472c49.987 49.986 49.987 131.031 0 181.019zM743.744 749.255c24.995 24.994 65.517 24.994 90.512 0 24.992-24.993 24.992-65.516 0-90.509l-22.627-22.627-90.512 90.509 22.627 22.627zM460.902 466.413l214.96 214.96 90.509-90.508-214.96-214.96-90.509 90.509zM406.333 321.331l24.803 84.336 59.533-59.53-84.336-24.806zM192 714.988c0 17.673 14.327 32 32 32h160c17.674 0 32 14.327 32 32s-14.326 32-32 32h-160c-53.019 0-96-42.981-96-96v-575.999c0-53.021 42.981-96 96-96h576c53.021 0 96 42.979 96 96v160c0 17.674-14.326 32-32 32s-32-14.326-32-32v-160c0-17.674-14.326-32-32-32h-576c-17.673 0-32 14.326-32 32v575.999z" />
<glyph unicode="&#xe952;" glyph-name="32_home_ai" d="M799.987 768c0-17.673-14.326-32-32-32s-32 14.327-32 32c0 17.673 14.326 32 32 32s32-14.327 32-32zM799.987 224c0-17.674-14.326-32-32-32-3.738 0-7.328 0.64-10.662 1.821-13.648-2.413-27.805 4.304-34.246 17.36l-85.29 172.819h-301.552l-81.034-164.198c-7.822-15.846-27.010-22.355-42.858-14.531-15.848 7.821-22.355 27.008-14.534 42.858l258.201 523.176c7.821 15.848 27.011 22.355 42.858 14.534 1.094-0.54 2.144-1.135 3.149-1.778 7.37-2.75 13.75-8.206 17.504-15.818l216.464-438.607v310.365c0 17.673 14.326 32 32 32s32-14.327 32-32v-416zM487.014 689.506l-119.19-241.506h238.378l-119.187 241.506z" />
<glyph unicode="&#xe953;" glyph-name="32_home_dashboard" d="M288 768c-53.019 0-96-42.981-96-96v-160c0-53.021 42.981-96 96-96h96c53.021 0 96 42.979 96 96v160c0 53.019-42.979 96-96 96h-96zM256 672c0 17.673 14.327 32 32 32h96c17.674 0 32-14.327 32-32v-160c0-17.674-14.326-32-32-32h-96c-17.673 0-32 14.326-32 32v160zM640 480c-53.021 0-96-42.979-96-96v-160c0-53.021 42.979-96 96-96h96c53.021 0 96 42.979 96 96v160c0 53.021-42.979 96-96 96h-96zM608 384c0 17.674 14.326 32 32 32h96c17.674 0 32-14.326 32-32v-160c0-17.674-14.326-32-32-32h-96c-17.674 0-32 14.326-32 32v160zM544 672c0 53.019 42.979 96 96 96h96c53.021 0 96-42.981 96-96v-32c0-53.021-42.979-96-96-96h-96c-53.021 0-96 42.979-96 96v32zM640 704c-17.674 0-32-14.327-32-32v-32c0-17.674 14.326-32 32-32h96c17.674 0 32 14.326 32 32v32c0 17.673-14.326 32-32 32h-96zM288 352c-53.019 0-96-42.979-96-96v-32c0-53.021 42.981-96 96-96h96c53.021 0 96 42.979 96 96v32c0 53.021-42.979 96-96 96h-96zM256 256c0 17.674 14.327 32 32 32h96c17.674 0 32-14.326 32-32v-32c0-17.674-14.326-32-32-32h-96c-17.673 0-32 14.326-32 32v32z" />
<glyph unicode="&#xe954;" glyph-name="32_home_favourites" d="M456.678 736.633c24.685 42.385 85.917 42.385 110.605 0l79.046-135.715 153.498-33.238c47.939-10.381 66.864-68.618 34.179-105.194l-104.643-117.117 15.821-156.256c4.941-48.8-44.598-84.794-89.482-65.014l-143.722 63.334-143.722-63.334c-44.886-19.779-94.423 16.211-89.482 65.014l15.821 156.256-104.645 117.117c-32.682 36.576-13.76 94.813 34.179 105.194l153.5 33.238 79.046 135.715zM591.027 568.707l-79.046 135.715-79.046-135.715c-9.043-15.526-24.198-26.534-41.76-30.339l-153.497-33.238 104.646-117.117c11.971-13.398 17.76-31.213 15.949-49.088l-15.821-156.259 143.722 63.334c16.442 7.245 35.174 7.245 51.616 0l143.722-63.334-15.821 156.259c-1.811 17.875 3.978 35.69 15.949 49.088l104.646 117.117-153.501 33.238c-17.562 3.805-32.714 14.813-41.757 30.339z" />
<glyph unicode="&#xe955;" glyph-name="32_home_graphic" d="M224 448c0 159.059 128.941 288 288 288s288-128.941 288-288c0-17.674 14.326-32 32-32s32 14.326 32 32c0 194.404-157.597 352-352 352s-352-157.596-352-352c0-17.674 14.327-32 32-32s32 14.326 32 32zM512 448c-17.674 0-32-14.326-32-32v-128c0-17.674 14.326-32 32-32s32 14.326 32 32v128c0 17.674-14.326 32-32 32zM537.6 659.2c-6.042 8.058-15.526 12.8-25.6 12.8s-19.555-4.742-25.6-12.8l-192-256c-7.273-9.696-8.442-22.669-3.022-33.51l60.621-121.245v-26.045c-36.516-7.411-64-39.696-64-78.4 0-44.182 35.818-80 80-80h288c44.182 0 80 35.818 80 80 0 38.704-27.485 70.989-64 78.4v26.045l60.621 121.245c5.421 10.842 4.253 23.814-3.021 33.51l-192 256zM368 160h288c8.835 0 16-7.165 16-16s-7.165-16-16-16h-288c-8.835 0-16 7.165-16 16s7.165 16 16 16zM416 224v32c0 4.966-1.155 9.869-3.379 14.31l-55.155 110.31 154.534 206.045 154.534-206.045-55.155-110.31c-2.221-4.442-3.379-9.344-3.379-14.31v-32h-192z" />
<glyph unicode="&#xe956;" glyph-name="32_home_more" d="M336 384c26.509 0 48 21.491 48 48s-21.491 48-48 48c-26.51 0-48-21.491-48-48s21.49-48 48-48zM544 432c0-26.509-21.491-48-48-48s-48 21.491-48 48c0 26.509 21.491 48 48 48s48-21.491 48-48zM656 384c26.509 0 48 21.491 48 48s-21.491 48-48 48c-26.509 0-48-21.491-48-48s21.491-48 48-48zM864 432c0-203.242-164.758-368-368-368s-368 164.758-368 368c0 203.242 164.759 368 368 368s368-164.758 368-368zM800 432c0 167.894-136.106 304-304 304s-304-136.106-304-304c0-167.894 136.106-304 304-304s304 136.106 304 304z" />
<glyph unicode="&#xe957;" glyph-name="32_home_photoeditor" d="M877.885 773.495c12.496-12.497 12.496-32.758 0-45.255l-22.627-22.628-113.136 113.137 22.627 22.627c12.496 12.497 32.758 12.497 45.254 0l67.882-67.882zM719.501 796.13l-193.642-193.64c-5.184-5.184-8.429-11.99-9.197-19.28l-7.984-75.866c-2.131-20.243 14.928-37.306 35.171-35.174l75.869 7.984c7.29 0.768 14.096 4.016 19.277 9.197l193.642 193.642-113.136 113.137zM742.128 682.993l-140.374-140.375-25.29-2.662 2.662 25.29 140.374 140.375 22.627-22.628zM832 544.006v-336c0-44.186-35.818-80-80-80h-480c-44.183 0-80 35.814-80 80v479.998c0 44.183 35.817 80 80 80h272c17.674 0 32-14.327 32-32s-14.326-32-32-32h-272c-8.836 0-16-7.164-16-16v-424.44l101.053 202.109c24.189 48.378 93.76 46.797 115.728-2.63l79.094-177.962 67.798 84.746c27.059 33.824 79.2 31.562 103.226-4.48l45.101-67.648v246.307c0 17.67 14.326 32 32 32s32-14.33 32-32zM760.083 194.195l-90.435 135.651-67.798-84.746c-29.968-37.462-88.973-29.853-108.458 13.987l-79.094 177.962-122.524-245.043h460.227c2.95 0 5.712 0.797 8.083 2.189z" />
<glyph unicode="&#xe958;" glyph-name="32_home_projects" d="M352 320c-17.674 0-32-14.326-32-32s14.326-32 32-32h320c17.674 0 32 14.326 32 32s-14.326 32-32 32h-320zM320 416c0 17.674 14.326 32 32 32h320c17.674 0 32-14.326 32-32s-14.326-32-32-32h-320c-17.674 0-32 14.326-32 32zM352 576c-17.674 0-32-14.326-32-32s14.326-32 32-32h160c17.674 0 32 14.326 32 32s-14.326 32-32 32h-160zM832 608c0-1.43-0.093-2.838-0.275-4.218 0.182-2.41 0.275-4.835 0.275-7.274v-404.509c0-53.021-42.979-96-96-96h-448c-53.019 0-96 42.979-96 96v512c0 53.019 42.981 96 96 96h325.462c23.293 0 45.792-8.47 63.306-23.831l122.538-107.49c13.974-12.258 23.939-28.165 28.966-45.677 2.381-4.474 3.728-9.581 3.728-15.002zM640 672c0-17.673 14.326-32 32-32h62.947l-94.947 83.287v-51.287zM672 576c-53.021 0-96 42.979-96 96v64h-288c-17.673 0-32-14.327-32-32v-512c0-17.674 14.327-32 32-32h448c17.674 0 32 14.326 32 32v384h-96z" />
<glyph unicode="&#xe959;" glyph-name="32_home_text" d="M800 768c17.674 0 32-14.327 32-32v-96c0-17.674-14.326-32-32-32s-32 14.326-32 32v64h-224v-480h64c17.674 0 32-14.326 32-32s-14.326-32-32-32h-192c-17.674 0-32 14.326-32 32s14.326 32 32 32h64v480h-224v-64c0-17.674-14.327-32-32-32s-32 14.326-32 32v96c0 17.673 14.327 32 32 32h576z" />
<glyph unicode="&#xe95a;" glyph-name="32_home_trash" d="M448 512c17.674 0 32-14.326 32-32v-256c0-17.674-14.326-32-32-32s-32 14.326-32 32v256c0 17.674 14.326 32 32 32zM608 480c0 17.674-14.326 32-32 32s-32-14.326-32-32v-256c0-17.674 14.326-32 32-32s32 14.326 32 32v256zM320 640v64c0 35.346 28.653 64 64 64h256c35.347 0 64-28.654 64-64v-64h128c17.674 0 32-14.326 32-32s-14.326-32-32-32h-32v-416c0-53.021-42.979-96-96-96h-384c-53.019 0-96 42.979-96 96v416h-32c-17.673 0-32 14.326-32 32s14.327 32 32 32h128zM384 704v-64h256v64h-256zM288 576v-416c0-17.674 14.327-32 32-32h384c17.674 0 32 14.326 32 32v416h-448z" />
<glyph unicode="&#xe95b;" glyph-name="32_home_uploads" d="M288.003 483.818c0.561 104.41 86.304 188.879 191.997 188.879 78.256 0 145.648-46.313 175.555-112.873 2.454-5.462 5.456-12.557 7.066-17.149l0.083 0.029-0.048-0.147 11.539-3.651c72.781-21.373 125.811-88.058 125.811-166.912 0-61.987-32.733-116.435-82.186-147.322-14.941-9.331-19.408-28.88-9.971-43.661s29.2-19.197 44.144-9.866c67.238 41.997 112.013 116.24 112.013 200.848 0 101.075-63.843 187.328-153.76 221.59-41.517 84.264-128.982 142.416-230.246 142.416-131.040 0-239.085-97.386-254.194-222.979-40.617-40.080-65.806-95.565-65.806-156.861 0-82.048 45.107-153.638 111.977-191.901 15.298-8.752 34.873-3.584 43.723 11.549 8.848 15.133 3.622 34.493-11.676 43.248-47.908 27.411-80.023 78.566-80.023 137.104 0 51.971 25.292 98.090 64.502 126.992l-0.5 0.666zM489.373 470.627c12.496 12.496 32.758 12.496 45.254 0l96-96c12.496-12.496 12.496-32.758 0-45.254s-32.758-12.496-45.254 0l-41.373 41.373v-210.746c0-17.674-14.326-32-32-32s-32 14.326-32 32v210.746l-41.373-41.373c-12.496-12.496-32.758-12.496-45.254 0s-12.496 32.758 0 45.254l96 96z" />
<glyph unicode="&#xe95c;" glyph-name="20_effect_sp_yd" d="M343.275 203.402c-8.317-21.898-25.601-39.188-47.5-47.503l-39.8-15.099 39.8-15.099c21.899-8.315 39.182-25.605 47.5-47.498l15.1-39.803 15.1 39.803c8.317 21.903 25.644 39.183 47.55 47.498l39.75 15.099-39.75 15.099c-21.907 8.315-39.233 25.595-47.55 47.503l-15.1 39.798-15.1-39.798zM783.227 781.701c1.859 46.564-45.082 79.455-88.202 61.8l-138.752-56.85c-14.838-6.082-31.457-6.36-46.498-0.8l-140.65 52c-43.705 16.138-89.471-18.388-86-64.85l11.2-149.55 0.15-5.95c-0.257-13.927-5.052-27.482-13.75-38.5l-92.9-117.65c-27.069-34.292-12.338-84.099 26.9-99.3l8.2-2.55 145.65-35.548c15.578-3.804 29.199-13.312 38.1-26.65l83.2-124.754c25.868-38.758 83.196-37.78 107.701 1.853l63.698 103.148 172.902-172.948 3.901-3.502c20.106-16.399 49.751-15.242 68.495 3.502 18.749 18.744 19.907 48.389 3.502 68.5l-3.502 3.896-161.746 161.802 112.998 31.749c44.856 12.621 61.66 67.446 31.549 103.001l-96.947 114.4c-10.373 12.233-15.79 27.926-15.15 43.95l5.949 149.8zM674.924 635.951c-1.654-41.648 12.406-82.402 39.352-114.2l58.25-68.75-86.753-24.452c-40.125-11.29-74.578-37.238-96.497-72.699l-47.401-76.698-50.050 74.998c-20.249 30.336-49.846 53.023-84.050 64.85l-14.9 4.398-87.6 21.453 55.85 70.75c25.821 32.718 38.459 73.936 35.35 115.5l-6.75 89.95 84.55-31.25c39.108-14.456 82.223-13.709 120.802 2.1l83.446 34.2-3.599-90.15zM193.475 290.15c-6.237-16.425-19.223-29.414-35.65-35.651l-29.85-11.3 29.85-11.3c16.426-6.236 29.413-19.226 35.65-35.651l11.3-29.85 11.3 29.85c6.235 16.425 19.228 29.414 35.65 35.651l29.85 11.3-29.85 11.3c-16.422 6.241-29.415 19.226-35.65 35.651l-11.3 29.85-11.3-29.85z" />
<glyph unicode="&#xe95d;" glyph-name="32_jc_more" d="M384 400c26.509 0 48 21.491 48 48s-21.491 48-48 48c-26.509 0-48-21.491-48-48s21.491-48 48-48zM512 400c26.509 0 48 21.491 48 48s-21.491 48-48 48c-26.509 0-48-21.491-48-48s21.491-48 48-48zM688 448c0-26.509-21.491-48-48-48s-48 21.491-48 48c0 26.509 21.491 48 48 48s48-21.491 48-48zM832 448c0-176.73-143.27-320-320-320s-320 143.27-320 320c0 176.73 143.27 320 320 320s320-143.27 320-320zM768 448c0 141.386-114.614 256-256 256s-256-114.614-256-256c0-141.386 114.614-256 256-256s256 114.614 256 256z" />
<glyph unicode="&#xe95e;" glyph-name="32_jc_rotate" d="M510.912 704c-140.669 0-254.912-114.499-254.912-256s114.243-256 254.912-256c75.45 0 143.235 32.88 189.971 85.296 11.76 13.19 31.99 14.349 45.181 2.589 13.19-11.763 14.349-31.99 2.589-45.181-58.336-65.424-143.245-106.704-237.741-106.704-176.243 0-318.912 143.382-318.912 320s142.669 320 318.912 320c100.666 0 190.362-46.796 248.771-119.765l60.477 66.527c4.448 4.891 11.443 6.544 17.61 4.161s10.23-8.313 10.23-14.924v-175.999c0-8.838-7.162-16-16-16h-160c-6.333 0-12.070 3.734-14.63 9.526-2.563 5.792-1.469 12.55 2.79 17.235l55.795 61.373c-46.48 63.075-121.062 103.866-205.043 103.866z" />
<glyph unicode="&#xe95f;" glyph-name="32_jc_unlock" d="M544 416c0 17.674-14.326 32-32 32s-32-14.326-32-32v-64c0-17.674 14.326-32 32-32s32 14.326 32 32v64zM512 768c-106.038 0-192-85.961-192-192v-36.032c-55.207-14.211-96-64.326-96-123.968v-160c0-70.691 57.308-128 128-128h320c70.691 0 128 57.309 128 128v160c0 59.642-40.794 109.757-96 123.968v36.032c0 106.039-85.962 192-192 192zM640 544h-256v32c0 70.692 57.309 128 128 128s128-57.308 128-128v-32zM352 480h320c35.347 0 64-28.653 64-64v-160c0-35.347-28.653-64-64-64h-320c-35.346 0-64 28.653-64 64v160c0 35.347 28.654 64 64 64z" />
<glyph unicode="&#xe960;" glyph-name="32_log_code" d="M493.12 825.568c11.302 8.356 26.682 8.599 38.211 0.563 107.203-74.725 169.197-96.919 272.634-111.9 15.974-2.314 28.035-16.021 28.035-32.332v-63.035c0-132.726-1.133-273.53-78.659-380.659-71.603-98.947-172.218-160.669-236.422-173.69-3.299-0.669-6.643-0.666-9.962-0.102-106.022 18.016-187.133 91.014-241.104 174.237-71.009 109.494-73.852 246.57-73.852 377.488v64.975c0 16.644 12.541 30.501 28.88 32.585 109.344 13.942 179.332 43.185 272.24 111.87zM479.587 521.866v-265.866h65.043v265.866h95.37v54.134h-256v-54.134h95.587z" />
<glyph unicode="&#xe961;" glyph-name="32_log_email" d="M192 639.174v-383.232c0-35.347 28.654-64 64-64h512c35.347 0 64 28.653 64 64v383.251l-277.421-247.328c-24.269-21.638-60.909-21.638-85.178 0l-277.402 247.309zM799.338 695.815c-9.261 5.212-19.952 8.185-31.338 8.185h-512c-11.39 0-22.085-2.975-31.35-8.191l287.341-256.173 287.347 256.18z" />
<glyph unicode="&#xe962;" glyph-name="32_log_password" d="M384 640c0 70.692 57.309 128 128 128s128-57.308 128-128v-64h64v64c0 106.039-85.962 192-192 192s-192-85.961-192-192v-64h64v64zM224 480c0 35.347 28.654 64 64 64h448c35.347 0 64-28.653 64-64v-320c0-35.347-28.653-64-64-64h-448c-35.346 0-64 28.653-64 64v320zM542.995 327.994c19.683 10.915 33.005 31.904 33.005 56.006 0 35.347-28.653 64-64 64s-64-28.653-64-64c0-24.102 13.322-45.091 33.005-56.006-0.656-2.557-1.005-5.235-1.005-7.994v-64c0-17.674 14.326-32 32-32s32 14.326 32 32v64c0 2.758-0.349 5.437-1.005 7.994z" />
<glyph unicode="&#xe963;" glyph-name="32_profile_ac" d="M512 800c-194.404 0-352-157.596-352-352s157.596-352 352-352c194.403 0 352 157.597 352 352s-157.597 352-352 352zM323.77 230.019c17.654 87.811 95.219 153.949 188.23 153.949s170.576-66.138 188.23-153.949c-50.48-43.629-116.272-70.019-188.23-70.019s-137.75 26.39-188.23 70.019zM273.831 286.026c-31.447 46.15-49.831 101.917-49.831 161.974 0 159.059 128.941 288 288 288s288-128.941 288-288c0-60.058-18.384-115.824-49.83-161.974-28.88 73.066-90.41 129.664-166.602 151.805 34.048 23.002 56.432 61.955 56.432 106.138 0 70.694-57.309 128.001-128 128.001s-128-57.306-128-128.001c0-44.182 22.384-83.136 56.432-106.138-76.192-22.141-137.722-78.739-166.601-151.805zM512 479.968c-35.347 0-64 28.656-64 64 0 35.347 28.653 64 64 64s64-28.653 64-64c0-35.344-28.653-64-64-64z" />
<glyph unicode="&#xe964;" glyph-name="32_profile_setting" d="M672 448c0-88.365-71.635-160-160-160s-160 71.635-160 160c0 88.365 71.635 160 160 160s160-71.635 160-160zM608 448c0 53.021-42.979 96-96 96s-96-42.979-96-96c0-53.021 42.979-96 96-96s96 42.979 96 96zM665.213 800c33.949 0 65.376-17.933 82.646-47.162l151.274-256c17.802-30.125 17.802-67.552 0-97.677l-151.274-256c-17.27-29.229-48.698-47.162-82.646-47.162h-306.438c-33.952 0-65.378 17.933-82.65 47.162l-151.273 256c-17.802 30.125-17.802 67.552 0 97.677l151.273 256c17.272 29.229 48.698 47.162 82.65 47.162h306.438zM692.762 720.279c-5.757 9.743-16.234 15.721-27.549 15.721h-306.438c-11.318 0-21.795-5.978-27.552-15.721l-151.272-256.001c-5.934-10.042-5.934-22.515 0-32.557l151.272-256c5.757-9.744 16.234-15.722 27.552-15.722h306.438c11.315 0 21.792 5.978 27.549 15.722l151.274 256c5.933 10.042 5.933 22.515 0 32.557l-151.274 256.001z" />
<glyph unicode="&#xe965;" glyph-name="32_profile_signout" d="M485.059 736c-162.326 0-293.059-129.414-293.059-288s130.733-288 293.059-288c62.896 0 121.043 19.437 168.71 52.48 14.525 10.070 34.461 6.458 44.528-8.067 10.070-14.525 6.458-34.461-8.067-44.531-58.086-40.266-128.896-63.882-205.171-63.882-196.724 0-357.059 157.123-357.059 352 0 194.876 160.335 352 357.059 352 76.275 0 147.085-23.615 205.171-63.883 14.525-10.069 18.138-30.006 8.067-44.53-10.067-14.524-30.003-18.136-44.528-8.067-47.667 33.044-105.814 52.48-168.71 52.48zM480 448c0 17.674 14.326 32 32 32h274.746l-73.373 73.373c-12.496 12.496-12.496 32.758 0 45.254s32.758 12.496 45.254 0l128-128c12.496-12.496 12.496-32.758 0-45.254l-128-128c-12.496-12.496-32.758-12.496-45.254 0s-12.496 32.758 0 45.254l73.373 73.373h-274.746c-17.674 0-32 14.326-32 32z" />
<glyph unicode="&#xe966;" glyph-name="32_text_alignment" d="M352 768c-17.674 0-32-14.327-32-32s14.326-32 32-32h320c17.674 0 32 14.327 32 32s-14.326 32-32 32h-320zM352 384c-17.674 0-32-14.326-32-32s14.326-32 32-32h320c17.674 0 32 14.326 32 32s-14.326 32-32 32h-320zM224 544c0 17.674 14.327 32 32 32h512c17.674 0 32-14.326 32-32s-14.326-32-32-32h-512c-17.673 0-32 14.326-32 32zM256 192c-17.673 0-32-14.326-32-32s14.327-32 32-32h512c17.674 0 32 14.326 32 32s-14.326 32-32 32h-512z" />
<glyph unicode="&#xe967;" glyph-name="32_text_dropdown" d="M361.373 534.627c12.496 12.496 32.758 12.496 45.254 0l105.373-105.373 105.373 105.373c12.496 12.496 32.758 12.496 45.254 0s12.496-32.758 0-45.254l-128-128c-12.496-12.496-32.758-12.496-45.254 0l-128 128c-12.496 12.496-12.496 32.758 0 45.254z" />
<glyph unicode="&#xe968;" glyph-name="32_text_layer" d="M226.046 459.235c6.205 16.547 24.651 24.931 41.198 18.726l244.765-91.786 244.762 91.786c16.55 6.205 34.995-2.179 41.2-18.726s-2.179-34.992-18.726-41.197l-256-96c-7.245-2.717-15.229-2.717-22.474 0l-255.998 96c-16.548 6.205-24.932 24.65-18.727 41.197zM500.771 765.963c7.245 2.716 15.229 2.716 22.474 0l256-96c12.49-4.684 20.765-16.624 20.765-29.963s-8.275-25.28-20.765-29.962l-256-96c-7.245-2.717-15.229-2.717-22.474 0l-255.998 96c-12.49 4.682-20.764 16.624-20.764 29.962s8.274 25.279 20.764 29.963l255.998 96zM347.146 640l164.864-61.824 164.864 61.824-164.864 61.824-164.864-61.824zM226.046 267.235c6.205 16.547 24.651 24.931 41.198 18.726l244.765-91.786 244.762 91.786c16.55 6.205 34.995-2.179 41.2-18.726s-2.179-34.992-18.726-41.197l-256-96c-7.245-2.717-15.229-2.717-22.474 0l-255.998 96c-16.548 6.205-24.932 24.65-18.727 41.197z" />
<glyph unicode="&#xe969;" glyph-name="32_text_projection" d="M192 640c0 70.692 57.308 128 128 128h256c70.691 0 128-57.308 128-128 70.691 0 128-57.309 128-128v-256c0-70.691-57.309-128-128-128h-256c-70.691 0-128 57.309-128 128-70.692 0-128 57.309-128 128v256zM320 704c-35.346 0-64-28.654-64-64v-256c0-35.347 28.654-64 64-64h256c35.347 0 64 28.653 64 64v256c0 35.346-28.653 64-64 64h-256zM384 256c0-35.347 28.653-64 64-64h30.058l-64 64h-30.058zM481.942 256l64-64h60.115l-64 64h-60.115zM604.906 259.277c0.477 0.109 0.95 0.224 1.421 0.336l67.616-67.613h30.058c8.867 0 17.315 1.805 24.995 5.066l-81.053 81.050c-12.861-8.755-27.398-15.229-43.037-18.838zM681.885 312.058l81.050-81.053c3.261 7.68 5.066 16.128 5.066 24.995v30.058l-67.613 67.616c-3.67-15.098-10.013-29.146-18.502-41.616zM704 417.942l64-64v60.115l-64 64v-60.115zM704 545.942l64-64v30.058c0 35.347-28.653 64-64 64v-30.058z" />
<glyph unicode="&#xe96a;" glyph-name="32_text_spacing" d="M192 160c0-17.674 14.327-32 32-32s32 14.326 32 32v576c0 17.673-14.327 32-32 32s-32-14.327-32-32v-576zM672 352h-320c-17.674 0-32 14.326-32 32s14.326 32 32 32h320c17.674 0 32-14.326 32-32s-14.326-32-32-32zM320 224c0 17.674 14.326 32 32 32h320c17.674 0 32-14.326 32-32s-14.326-32-32-32h-320c-17.674 0-32 14.326-32 32zM800 128c-17.674 0-32 14.326-32 32v576c0 17.673 14.326 32 32 32s32-14.327 32-32v-576c0-17.674-14.326-32-32-32zM694.627 585.373c6 6 9.373 14.141 9.373 22.627s-3.373 16.627-9.373 22.627l-64 64c-12.496 12.497-32.758 12.497-45.254 0s-12.496-32.758 0-45.255l9.373-9.372h-165.491l9.373 9.372c12.496 12.497 12.496 32.758 0 45.255s-32.758 12.497-45.254 0l-64-64c-12.497-12.496-12.497-32.758 0-45.254l64-64c12.496-12.496 32.758-12.496 45.254 0s12.496 32.758 0 45.254l-9.373 9.373h165.491l-9.373-9.373c-12.496-12.496-12.496-32.758 0-45.254s32.758-12.496 45.254 0l64 64z" />
<glyph unicode="&#xe96b;" glyph-name="32_toolbar_move" d="M512.064 784c27.917 0 51.658-17.874 60.403-42.803 10.179 6.823 22.422 10.803 35.597 10.803 35.344 0 64-28.654 64-64v-72.563c9.411 5.446 20.342 8.563 32 8.563 35.344 0 64-28.653 64-64v-112c0-0.304-0.010-0.602-0.026-0.902v-160.554c0-96.397-78.147-174.544-174.547-174.544h-93.021c-77.856 0-150 40.848-190.057 107.61l-109.27 182.115c-17.193 28.656-10.552 65.61 15.542 86.483 31.567 25.254 78.157 16.88 98.956-17.782l36.396-60.659v246.234c0 35.346 28.653 64 64 64 11.667 0 22.605-3.122 32.026-8.577v8.577c0 35.346 28.653 64 64 64zM672.064 560v-112c0-8.835-7.165-16-16-16-8.838 0-16 7.165-16 16v240c0 17.673-14.33 32-32 32-17.674 0-32-14.327-32-32v-240c0-8.835-7.165-16-16-16-8.838 0-16 7.165-16 16v272c0 17.673-14.33 32-32 32-17.674 0-32-14.327-32-32v-272c0-8.835-7.165-16-16-16-8.838 0-16 7.165-16 16l-0.026 208c0 17.673-14.326 32-32 32s-32-14.327-32-32v-304c0-7.19-4.8-13.501-11.731-15.421-6.928-1.917-14.288 1.021-17.99 7.19l-66.115 110.192c-10.83 18.048-35.090 22.41-51.526 9.258-13.587-10.867-17.045-30.109-8.093-45.030l109.27-182.115c34.272-57.123 96.003-92.074 162.618-92.074h93.021c78.726 0 142.547 63.821 142.547 142.544l0.026 273.456c0 17.674-14.33 32-32 32-17.674 0-32-14.326-32-32z" />
<glyph unicode="&#xe96c;" glyph-name="32_toolbar_preview" d="M704 704c35.347 0 64-28.654 64-64v-384c0-35.347-28.653-64-64-64h-384c-35.346 0-64 28.653-64 64v384c0 35.346 28.654 64 64 64h384zM320 736c-53.019 0-96-42.981-96-96v-384c0-53.021 42.981-96 96-96h384c53.021 0 96 42.979 96 96v384c0 53.019-42.979 96-96 96h-384zM560 624c-8.835 0-16 7.165-16 16s7.165 16 16 16h144c8.835 0 16-7.164 16-16v-144c0-8.835-7.165-16-16-16s-16 7.165-16 16v105.373l-116.685-116.688c-6.25-6.246-16.381-6.246-22.63 0-6.246 6.25-6.246 16.381 0 22.63l116.688 116.685h-105.373zM480 256c0-8.835-7.165-16-16-16h-144c-8.836 0-16 7.165-16 16v144c0 8.835 7.164 16 16 16 8.835 0 16-7.165 16-16v-105.373l116.685 116.688c6.25 6.246 16.381 6.246 22.63 0 6.246-6.25 6.246-16.381 0-22.63l-116.688-116.685h105.373c8.835 0 16-7.165 16-16z" />
<glyph unicode="&#xe96d;" glyph-name="32_toolbar_vs" d="M512 736h32v-64h54.4v-32h-54.4v-384h54.4v-32h-54.4v-64h-32v64h-288v448h288v64zM327.389 640h-71.389v-41.699l71.389 41.699zM256 561.123v-59.411l236.746 138.288h-101.712l-135.034-78.877zM256 464.538v-59.411l256 149.533v59.411l-256-149.533zM512 517.482l-256-149.533v-59.411l256 149.533v59.411zM512 420.896l-256-149.536v-15.36h75.418l180.582 105.482v59.414zM512 324.304l-116.938-68.304h116.938v68.304zM800 224h-32v28h3.2v4h28.8v-32zM800 672v-32h-28.8v4h-3.2v28h32zM656 640v32h57.6v-32h-57.6zM768 588h32v-56h-32v56zM768 476h32v-56h-32v56zM768 364h32v-56h-32v56zM713.6 256v-32h-57.6v32h57.6z" />
<glyph unicode="&#xe96e;" glyph-name="26_tips_close" d="M720.459 712.157c15.38 15.38 40.318 15.38 55.698 0s15.38-40.318 0-55.699l-208.459-208.458 208.459-208.459c15.38-15.38 15.38-40.318 0-55.698s-40.318-15.38-55.698 0l-208.459 208.459-208.458-208.459c-15.381-15.38-40.318-15.38-55.699 0s-15.38 40.318 0 55.698l208.459 208.459-208.459 208.458c-15.38 15.381-15.38 40.318 0 55.699s40.318 15.38 55.699 0l208.458-208.459 208.459 208.459z" />
<glyph unicode="&#xe96f;" glyph-name="26_tips_del" d="M433.231 566.154c21.752 0 39.385-17.632 39.385-39.385v-236.308c0-21.752-17.632-39.385-39.385-39.385s-39.385 17.632-39.385 39.385v236.308c0 21.752 17.632 39.385 39.385 39.385zM630.154 526.769c0 21.752-17.632 39.385-39.385 39.385s-39.385-17.632-39.385-39.385v-236.308c0-21.752 17.632-39.385 39.385-39.385s39.385 17.632 39.385 39.385v236.308zM315.077 684.308v39.385c0 43.503 35.266 78.769 78.769 78.769h236.308c43.504 0 78.769-35.266 78.769-78.769v-39.385h118.154c21.752 0 39.385-17.633 39.385-39.385s-17.632-39.385-39.385-39.385h-39.385v-393.846c0-65.256-52.897-118.154-118.154-118.154h-315.077c-65.254 0-118.154 52.897-118.154 118.154v393.846h-39.385c-21.751 0-39.385 17.633-39.385 39.385s17.633 39.385 39.385 39.385h118.154zM393.846 723.692v-39.385h236.308v39.385h-236.308zM708.923 605.538h-393.846v-393.846c0-21.752 17.633-39.385 39.385-39.385h315.077c21.752 0 39.385 17.632 39.385 39.385v393.846z" />
<glyph unicode="&#xe970;" glyph-name="26_tips_error" d="M365.997 594.003c15.381 15.38 40.318 15.38 55.698 0l90.305-90.305 90.305 90.305c15.38 15.38 40.318 15.38 55.698 0s15.38-40.318 0-55.698l-90.305-90.305 90.305-90.305c15.38-15.38 15.38-40.318 0-55.698s-40.318-15.38-55.698 0l-90.305 90.305-90.305-90.305c-15.38-15.38-40.317-15.38-55.698 0s-15.38 40.318 0 55.698l90.305 90.305-90.305 90.305c-15.38 15.38-15.38 40.317 0 55.698zM512 93.538c195.765 0 354.462 158.696 354.462 354.462 0 195.764-158.696 354.462-354.462 354.462-195.764 0-354.462-158.698-354.462-354.462s158.698-354.462 354.462-354.462zM512 172.308c-152.261 0-275.692 123.431-275.692 275.692s123.432 275.692 275.692 275.692c152.261 0 275.692-123.432 275.692-275.692s-123.431-275.692-275.692-275.692z" />
<glyph unicode="&#xe971;" glyph-name="26_tips_information" d="M512 644.923c21.752 0 39.385-17.633 39.385-39.385v-196.923c0-21.752-17.632-39.385-39.385-39.385s-39.385 17.632-39.385 39.385v196.923c0 21.751 17.632 39.385 39.385 39.385zM512 251.077c21.752 0 39.385 17.632 39.385 39.385s-17.632 39.385-39.385 39.385c-21.752 0-39.385-17.632-39.385-39.385s17.632-39.385 39.385-39.385zM512 93.538c195.765 0 354.462 158.696 354.462 354.462 0 195.764-158.696 354.462-354.462 354.462-195.764 0-354.462-158.698-354.462-354.462s158.698-354.462 354.462-354.462zM512 172.308c-152.261 0-275.692 123.431-275.692 275.692s123.432 275.692 275.692 275.692c152.261 0 275.692-123.432 275.692-275.692s-123.431-275.692-275.692-275.692z" />
<glyph unicode="&#xe972;" glyph-name="26_tips_success" d="M697.387 498.92c15.38 15.38 15.38 40.318 0 55.698s-40.318 15.381-55.698 0l-169.074-169.074-90.305 90.305c-15.381 15.38-40.318 15.38-55.699 0s-15.38-40.318 0-55.698l118.154-118.154c15.38-15.38 40.318-15.38 55.698 0l196.923 196.923zM866.462 448c0-195.765-158.696-354.462-354.462-354.462-195.764 0-354.462 158.696-354.462 354.462 0 195.764 158.698 354.462 354.462 354.462s354.462-158.698 354.462-354.462zM787.692 448c0 152.261-123.431 275.692-275.692 275.692s-275.692-123.432-275.692-275.692c0-152.261 123.432-275.692 275.692-275.692s275.692 123.431 275.692 275.692z" />
<glyph unicode="&#xe973;" glyph-name="24_add" d="M554.667 832c0 23.564-19.102 42.667-42.667 42.667s-42.667-19.103-42.667-42.667v-341.333h-341.333c-23.564 0-42.667-19.102-42.667-42.667s19.103-42.667 42.667-42.667h341.333v-341.333c0-23.565 19.102-42.667 42.667-42.667s42.667 19.102 42.667 42.667v341.333h341.333c23.565 0 42.667 19.102 42.667 42.667s-19.102 42.667-42.667 42.667h-341.333v341.333z" />
<glyph unicode="&#xe974;" glyph-name="24_adjust_basic" d="M896 661.333h-480.749c-14.755 25.506-42.332 42.667-73.917 42.667s-59.163-17.161-73.917-42.667h-139.416c-23.564 0-42.667-19.103-42.667-42.667s19.103-42.667 42.667-42.667h139.416c14.755-25.506 42.332-42.667 73.917-42.667s59.163 17.161 73.917 42.667h480.749c23.565 0 42.667 19.103 42.667 42.667s-19.102 42.667-42.667 42.667zM128 320c-23.564 0-42.667-19.102-42.667-42.667s19.103-42.667 42.667-42.667h480.751c14.754-25.506 42.33-42.667 73.916-42.667s59.162 17.161 73.916 42.667h139.418c23.565 0 42.667 19.102 42.667 42.667s-19.102 42.667-42.667 42.667h-139.418c-14.754 25.506-42.33 42.667-73.916 42.667s-59.162-17.161-73.916-42.667h-480.751z" />
<glyph unicode="&#xe975;" glyph-name="24_adjust_blurred" d="M512 106.667c-188.513 0-341.333 152.819-341.333 341.333s152.82 341.333 341.333 341.333c188.514 0 341.333-152.82 341.333-341.333s-152.819-341.333-341.333-341.333zM512 21.333c235.639 0 426.667 191.027 426.667 426.667 0 235.642-191.027 426.667-426.667 426.667-235.642 0-426.667-191.025-426.667-426.667 0-235.639 191.025-426.667 426.667-426.667zM554.667 618.667c0-23.564-19.102-42.667-42.667-42.667s-42.667 19.103-42.667 42.667c0 23.564 19.102 42.667 42.667 42.667s42.667-19.103 42.667-42.667zM426.667 576c0-23.564-19.103-42.667-42.667-42.667s-42.667 19.103-42.667 42.667c0 23.564 19.103 42.667 42.667 42.667s42.667-19.103 42.667-42.667zM682.667 576c0-23.564-19.102-42.667-42.667-42.667s-42.667 19.103-42.667 42.667c0 23.564 19.102 42.667 42.667 42.667s42.667-19.103 42.667-42.667zM682.667 320c0-23.565-19.102-42.667-42.667-42.667s-42.667 19.102-42.667 42.667c0 23.565 19.102 42.667 42.667 42.667s42.667-19.102 42.667-42.667zM426.667 320c0-23.565-19.103-42.667-42.667-42.667s-42.667 19.102-42.667 42.667c0 23.565 19.103 42.667 42.667 42.667s42.667-19.102 42.667-42.667zM554.667 277.333c0-23.565-19.102-42.667-42.667-42.667s-42.667 19.102-42.667 42.667c0 23.565 19.102 42.667 42.667 42.667s42.667-19.102 42.667-42.667zM384 448c0-23.565-19.103-42.667-42.667-42.667s-42.667 19.102-42.667 42.667c0 23.565 19.103 42.667 42.667 42.667s42.667-19.102 42.667-42.667zM725.333 448c0-23.565-19.102-42.667-42.667-42.667s-42.667 19.102-42.667 42.667c0 23.565 19.102 42.667 42.667 42.667s42.667-19.102 42.667-42.667z" />
</font>
</defs>
</svg>
